<?xml version="1.0" standalone="no"?>
<!DOCTYPE svg PUBLIC "-//W3C//DTD SVG 1.1//EN" "http://www.w3.org/Graphics/SVG/1.1/DTD/svg11.dtd" >
<svg xmlns="http://www.w3.org/2000/svg">
<metadata></metadata>
<defs>
<font id="graphein_prolight" horiz-adv-x="536" >
<font-face units-per-em="1000" ascent="758" descent="-242" />
<missing-glyph horiz-adv-x="250" />
<glyph unicode="&#xfb01;" horiz-adv-x="531" d="M120 0v433h-102v50h102v54q0 90 18 125q34 63 116 63q22 0 53 -8l-5 -55q-25 10 -44 10q-46 0 -64 -37q-13 -25 -13 -95v-57h113v-50h-113v-433h-61zM392 624v82h71v-82h-71zM397 0v485h61v-485h-61z" />
<glyph unicode="&#xfb02;" horiz-adv-x="531" d="M120 0v433h-102v50h102v54q0 90 18 125q34 63 116 63q22 0 53 -8l-5 -55q-25 10 -44 10q-46 0 -64 -37q-13 -25 -13 -95v-57h113v-50h-113v-433h-61zM397 0v720h61v-720h-61z" />
<glyph unicode="&#xfb03;" horiz-adv-x="809" d="M120 0v433h-102v50h102v54q0 90 18 125q34 63 116 63q22 0 53 -8l-5 -55q-25 10 -44 10q-46 0 -64 -37q-13 -25 -13 -95v-57h216v54q0 90 18 125q34 63 116 63q22 0 53 -8l-5 -55q-25 10 -44 10q-45 0 -64 -37q-13 -25 -13 -95v-57h113v-50h-113v-433h-61v433h-216v-433 h-61zM670 624v82h71v-82h-71zM674 0v485h61v-485h-61z" />
<glyph unicode="&#xfb04;" horiz-adv-x="808" d="M120 0v433h-102v50h102v54q0 90 18 125q34 63 116 63q22 0 53 -8l-5 -55q-25 10 -44 10q-46 0 -64 -37q-13 -25 -13 -95v-57h216v54q0 90 18 125q34 63 116 63q22 0 53 -8l-5 -55q-25 10 -44 10q-45 0 -64 -37q-13 -25 -13 -95v-57h113v-50h-113v-433h-61v433h-216v-433 h-61zM674 0v720h61v-720h-61z" />
<glyph horiz-adv-x="1000" />
<glyph horiz-adv-x="1000" />
<glyph unicode="&#xd;" horiz-adv-x="1000" />
<glyph unicode=" "  horiz-adv-x="250" />
<glyph unicode="&#x09;" horiz-adv-x="250" />
<glyph unicode="&#xa0;" horiz-adv-x="250" />
<glyph unicode="!" horiz-adv-x="360" d="M152 165l-11 502h79l-12 -502h-56zM141 0v80h79v-80h-79z" />
<glyph unicode="&#x22;" horiz-adv-x="293" d="M189 453l-9 267h65l-9 -267h-47zM57 453l-9 267h65l-9 -267h-47z" />
<glyph unicode="#" d="M96 0l32 217h-92l7 50h93l22 150h-92l7 50h93l30 200h53l-30 -200h143l30 200h53l-30 -200h90l-8 -50h-89l-23 -150h90l-8 -50h-89l-33 -217h-53l32 217h-142l-33 -217h-53zM189 267h143l22 150h-142z" />
<glyph unicode="$" d="M86 24l5 66q81 -37 148 -35v268q-79 45 -103 67q-57 51 -57 117q0 65 44 107.5t117 49.5v90h45v-88q74 0 144 -23l-7 -64q-59 31 -137 31l1 -236q93 -51 130 -86q48 -46 48 -113q0 -71 -50 -120t-130 -57v-87h-45v86q-5 -1 -12 -1q-58 0 -141 28zM240 396v214 q-94 -20 -94 -97q0 -69 94 -117zM284 55q41 11 61 24q23 14 37.5 39.5t14.5 53.5q0 38 -25 67.5t-88 64.5v-249z" />
<glyph unicode="%" horiz-adv-x="846" d="M205 -42l380 751h55l-381 -751h-54zM202 323q-72 0 -112 46t-40 129q0 86 41.5 136t113.5 50q73 0 112.5 -46t39.5 -131t-41.5 -134.5t-113.5 -49.5zM202 373q45 0 69.5 35t24.5 99q0 127 -89 127q-96 0 -96 -136q0 -125 91 -125zM489 158q0 87 41.5 136.5t114.5 49.5 q72 0 111.5 -46t39.5 -131t-41.5 -134.5t-113.5 -49.5t-112 46t-40 129zM550 157q0 -60 23.5 -92t67.5 -32q45 0 69.5 35t24.5 99q0 127 -89 127q-96 0 -96 -137z" />
<glyph unicode="&#x26;" horiz-adv-x="644" d="M548 0l-70 78q-47 -48 -94 -68.5t-111 -20.5q-101 0 -161 51.5t-60 137.5q0 96 83 154q24 17 79 38q-91 80 -91 165q0 62 50 101.5t129 39.5q70 0 114.5 -38.5t44.5 -99.5q0 -77 -73 -132q-29 -22 -85 -49l34 -35l139 -150q50 77 59 195h61q-10 -147 -82 -238l118 -129 h-84zM269 390q38 21 44 25q86 53 86 117q0 41 -29 67t-74 26q-40 0 -74 -23q-36 -26 -36 -74q0 -32 17 -60.5t66 -77.5zM443 122l-196 211q-56 -27 -81 -52q-47 -47 -47 -104q0 -58 45 -96.5t113 -38.5q93 0 166 80z" />
<glyph unicode="'" horiz-adv-x="161" d="M57 453l-9 267h65l-9 -267h-47z" />
<glyph unicode="(" horiz-adv-x="305" d="M259 -203h-50q-161 259 -161 466q0 159 98 353q12 25 58 104h50q-143 -269 -143 -457q0 -195 148 -466z" />
<glyph unicode=")" horiz-adv-x="304" d="M46 -203q147 272 147 467q0 186 -142 456h50q45 -80 63 -116q92 -190 92 -341q0 -207 -160 -466h-50z" />
<glyph unicode="*" d="M188 382l-45 33l88 116l-141 40l17 54l137 -51l-5 146h57l-5 -146l138 51l18 -54l-140 -40l91 -115l-47 -35l-82 122z" />
<glyph unicode="+" d="M242 123v191h-197v53h197v190h53v-190h197v-53h-197v-191h-53z" />
<glyph unicode="," horiz-adv-x="268" d="M113 82h78l-73 -211h-61z" />
<glyph unicode="-" horiz-adv-x="220" d="M0 222v51h220v-51h-220z" />
<glyph unicode="." horiz-adv-x="268" d="M95 0v82h79v-82h-79z" />
<glyph unicode="/" horiz-adv-x="416" d="M-26 -203l350 923h57l-350 -923h-57z" />
<glyph unicode="0" d="M268 -9q-109 0 -164.5 89.5t-55.5 263.5q0 136 39 217q57 116 184 116q61 0 108.5 -34.5t73.5 -96.5q35 -87 35 -211q0 -168 -56.5 -256t-163.5 -88zM269 46q74 0 113 74.5t39 213.5t-39 213.5t-112 74.5q-155 0 -155 -287q0 -137 40.5 -213t113.5 -76z" />
<glyph unicode="1" d="M269 0v505q0 74 4 93q-11 -15 -37 -36l-77 -66l-37 44l154 127h56v-667h-63z" />
<glyph unicode="2" d="M53 0v54q177 180 247 278t70 166q0 48 -36.5 80.5t-90.5 32.5q-70 0 -157 -48l-12 65q94 44 173 44q84 0 137 -46t53 -119q0 -61 -33 -126.5t-107 -149.5q-125 -142 -168 -177q9 2 24 3h41h261v-57h-402z" />
<glyph unicode="3" d="M50 21l8 64q82 -35 153 -35q80 0 131 38.5t51 99.5q0 41 -26.5 74.5t-67.5 44.5q-40 10 -120 10h-33v57h36q99 0 152 32t53 91q0 52 -42 83.5t-110 31.5q-69 0 -148 -34l-6 65q75 28 157 28q97 0 156.5 -46.5t59.5 -120.5q0 -69 -58 -118q-32 -28 -84 -38 q65 -6 106.5 -51.5t41.5 -110.5q0 -87 -67 -139t-180 -52q-80 0 -163 26z" />
<glyph unicode="4" d="M23 156v60l304 451h82l1 -454h100v-57h-100v-156h-63v156h-324zM89 213h258v337q0 26 4 68q-14 -33 -32 -59z" />
<glyph unicode="5" d="M83 19l1 65q75 -34 143 -34q83 0 132.5 44.5t49.5 117.5q0 69 -45 107.5t-126 38.5q-71 0 -148 -21l4 326h349v-51h-289l-2 -215q45 16 102 16q104 0 163 -54t59 -148q0 -100 -67 -158t-183 -58q-67 0 -143 24z" />
<glyph unicode="6" d="M465 654l-7 -61q-64 24 -118 24q-70 0 -123 -39.5t-79 -110.5q-19 -54 -22 -138q17 27 36 44q56 48 137 48q90 0 145.5 -59t55.5 -155t-60 -157t-154 -61q-109 0 -165.5 79.5t-56.5 231.5q0 181 73.5 276.5t213.5 95.5q56 0 124 -18zM129 208q0 -73 40.5 -118.5 t104.5 -45.5q67 0 108 45.5t41 119.5q0 69 -40 113t-103 44q-75 0 -117 -52q-34 -43 -34 -106z" />
<glyph unicode="7" d="M135 0l264 606h-342v57h411v-57l-262 -606h-71z" />
<glyph unicode="8" d="M44 174q0 63 44 109t120 62q-61 17 -102 66t-41 106q0 71 57.5 115.5t150.5 44.5q86 0 140 -43t54 -111q0 -69 -68 -130q-39 -34 -79 -46q52 -7 101 -43q71 -52 71 -133q0 -83 -61 -132.5t-163 -49.5q-100 0 -162 51.5t-62 133.5zM179 420q28 -22 95 -53q9 6 20 12.5 t16 10.5q90 62 90 128q0 44 -37.5 74t-93.5 30q-60 0 -98.5 -30.5t-38.5 -79.5q0 -53 47 -92zM111 176q0 -57 45 -94.5t114 -37.5q66 0 110.5 36t44.5 90q0 49 -40 85t-129 67q-81 -35 -113 -67t-32 -79z" />
<glyph unicode="9" d="M69 13l6 61q64 -24 119 -24q71 0 123.5 39.5t77.5 110.5q19 54 22 138q-17 -27 -36 -44q-56 -48 -137 -48q-89 0 -145 59t-56 154q0 96 60 157t154 61q109 0 165 -78.5t56 -230.5q0 -184 -72.5 -278.5t-213.5 -94.5q-55 0 -123 18zM253 301q68 0 109.5 43t41.5 114 q0 73 -40.5 118.5t-104.5 45.5q-67 0 -108 -45.5t-41 -118.5q0 -70 40 -113.5t103 -43.5z" />
<glyph unicode=":" horiz-adv-x="268" d="M95 407v78h79v-78h-79zM95 0v79h79v-79h-79z" />
<glyph unicode=";" horiz-adv-x="268" d="M103 403v82h78v-82h-78zM113 82h78l-73 -211h-61z" />
<glyph unicode="&#x3c;" horiz-adv-x="500" d="M33 309v53l433 199v-60l-368 -165l368 -166v-59z" />
<glyph unicode="=" d="M45 380v53h447v-53h-447zM45 247v53h447v-53h-447z" />
<glyph unicode="&#x3e;" horiz-adv-x="500" d="M34 110v61l368 165l-368 165v60l433 -199v-53z" />
<glyph unicode="?" horiz-adv-x="493" d="M208 164q1 71 16 102t92 121q47 55 47 113q0 52 -36 83t-95 31q-56 0 -125 -28l-4 61q66 24 135 24q86 0 137 -45t51 -121q0 -57 -36 -111q-15 -23 -92 -116q-32 -39 -32 -99q0 -9 1 -15h-59zM199 0v80h79v-80h-79z" />
<glyph unicode="@" horiz-adv-x="772" d="M627 -4l16 -47q-111 -52 -230 -52q-161 0 -259 99q-99 99 -99 246q0 145 100.5 244.5t246.5 99.5q136 0 226 -84.5t90 -212.5q0 -95 -49.5 -166.5t-115.5 -71.5q-60 0 -74 62q-44 -65 -121 -65q-62 0 -102 46t-40 117q0 86 51.5 145.5t125.5 59.5q40 0 65 -16t45 -54 l12 57h51l-42 -216q-4 -18 -6 -47q-1 -19 9.5 -32t27.5 -13q45 0 80 59t35 134q0 110 -75.5 180.5t-192.5 70.5q-125 0 -210.5 -86t-85.5 -212q0 -124 81 -208q82 -88 225 -88q113 0 215 51zM272 212q0 -50 26.5 -81.5t68.5 -31.5q49 0 82.5 47t33.5 116q0 47 -23.5 74 t-63.5 27q-51 0 -87.5 -44.5t-36.5 -106.5z" />
<glyph unicode="A" horiz-adv-x="641" d="M11 0l269 667h77l273 -667h-69l-73 179h-340l-72 -179h-65zM171 236h293l-121 302q-16 39 -25 71q-4 -11 -27 -71z" />
<glyph unicode="B" horiz-adv-x="537" d="M86 0v667h137q89 0 140 -24q94 -46 94 -146q0 -75 -62 -120q-21 -16 -62 -27q64 -7 104.5 -53.5t40.5 -113.5q0 -46 -21 -85t-59 -62q-61 -36 -174 -36h-138zM150 375h71q79 0 120 28q49 32 49 93q0 70 -68 99q-32 15 -99 15h-73v-235zM150 57h72q97 0 143 34 q46 35 46 95q0 69 -55 105q-24 16 -51.5 21.5t-82.5 5.5h-72v-261z" />
<glyph unicode="C" horiz-adv-x="589" d="M547 85l3 -65q-65 -23 -144 -23q-166 0 -257 89q-44 43 -69.5 110.5t-25.5 140.5q0 151 95 242t253 91q80 0 149 -27l-5 -61q-73 31 -149 31q-125 0 -200.5 -77.5t-75.5 -204.5t75 -202t203 -75q82 0 148 31z" />
<glyph unicode="D" horiz-adv-x="642" d="M86 0v667h91q104 0 160 -9t99 -33q70 -38 111 -117t41 -177q0 -93 -39 -166t-110 -114q-87 -51 -249 -51h-104zM150 57h68q143 0 223 73t80 204q0 80 -31 142.5t-87 95.5q-65 38 -190 38h-63v-553z" />
<glyph unicode="E" horiz-adv-x="485" d="M86 0v664h327v-57h-263v-236h251v-57h-251v-257h275v-57h-339z" />
<glyph unicode="F" horiz-adv-x="442" d="M86 0v663h316v-57h-252v-235h242v-57h-242v-314h-64z" />
<glyph unicode="G" horiz-adv-x="677" d="M599 357v-324q-96 -36 -199 -36q-136 0 -224 72q-122 99 -122 269q0 150 94.5 241t251.5 91q98 0 172 -31l-8 -60q-88 34 -165 34q-125 0 -201.5 -76t-76.5 -200q0 -127 79.5 -205t208.5 -78q62 0 126 21v225h-156v57h220z" />
<glyph unicode="H" horiz-adv-x="643" d="M86 0v667h64v-290h343v290h64v-667h-64v320h-343v-320h-64z" />
<glyph unicode="I" horiz-adv-x="249" d="M93 0v667h64v-667h-64z" />
<glyph unicode="J" horiz-adv-x="340" d="M31 4l2 57q37 -9 58 -9q50 0 76 35q14 20 19 46t5 81v453h64v-453q0 -94 -18 -137q-36 -82 -138 -82q-29 0 -68 9z" />
<glyph unicode="K" horiz-adv-x="581" d="M86 0v667h64v-299l304 299h85l-321 -315l352 -352h-91l-329 335v-335h-64z" />
<glyph unicode="L" horiz-adv-x="444" d="M86 0v667h64v-610h271v-57h-335z" />
<glyph unicode="M" horiz-adv-x="859" d="M86 0v667h96l174 -415q57 -136 70 -195q12 53 77 206l172 404h98v-667h-64v415q0 160 6 219q-29 -87 -81 -210l-181 -424h-56l-179 424q-70 167 -80 210q6 -43 8 -106q2 -64 2 -77q2 -44 2 -47v-404h-64z" />
<glyph unicode="N" horiz-adv-x="654" d="M86 0v667h75l275 -452q65 -107 85 -171q-6 37 -7.5 51t-3.5 59t-2 125v388h60v-667h-72l-272 445q-72 117 -86 167q6 -54 6 -79q2 -80 2 -118v-415h-60z" />
<glyph unicode="O" horiz-adv-x="703" d="M134 87q-79 100 -79 244q0 145 75 245q78 102 221 102q133 0 215 -96.5t82 -254.5q0 -154 -80.5 -246t-215.5 -92q-139 0 -218 98zM122 331q0 -128 63 -206.5t167 -78.5q103 0 166 77t63 204q0 126 -60 211q-28 39 -71.5 61t-93.5 22q-108 0 -171 -78t-63 -212z" />
<glyph unicode="P" horiz-adv-x="487" d="M86 0v667h126q107 0 158 -31q41 -25 64.5 -67.5t23.5 -92.5q0 -96 -77 -149q-60 -41 -170 -41h-61v-286h-64zM150 343h60q92 0 136 35q45 36 45 99q0 75 -63 112q-38 21 -116 21h-62v-267z" />
<glyph unicode="Q" horiz-adv-x="703" d="M532 -129l-130 121q-42 -3 -50 -3q-118 0 -195 72q-47 44 -75 118.5t-28 157.5q0 143 76 241q77 100 218 100q143 0 221 -98q80 -100 80 -249q0 -82 -27 -153.5t-75 -117.5q-22 -22 -78 -51l153 -138h-90zM351 46q104 0 167.5 78.5t63.5 206.5q0 129 -62.5 209.5 t-162.5 80.5q-108 0 -172 -77.5t-64 -208.5t63 -210t167 -79z" />
<glyph unicode="R" horiz-adv-x="539" d="M86 0v667h129q115 0 162 -28q80 -49 80 -145q0 -89 -78 -138q-31 -19 -74 -24q36 -6 53 -23.5t44 -75.5l106 -233h-71l-91 204q-20 45 -31 61t-29 27q-25 15 -83 15h-53v-307h-64zM150 364h53q97 0 141 36q46 38 46 93q0 31 -16.5 58.5t-42.5 41.5q-34 17 -117 17h-64 v-246z" />
<glyph unicode="S" horiz-adv-x="492" d="M67 18l6 68q76 -40 149 -40q66 0 107.5 35t41.5 91q0 46 -34 80q-13 13 -72 46l-78 43q-69 38 -96.5 75.5t-27.5 93.5q0 78 56 123t152 45q67 0 135 -23l-8 -63q-66 29 -125 29q-62 0 -102.5 -30.5t-40.5 -78.5q0 -35 20.5 -60t69.5 -52l73 -40q69 -38 95 -63 q50 -47 50 -121q0 -83 -60 -135t-156 -52q-78 0 -155 29z" />
<glyph unicode="T" horiz-adv-x="492" d="M215 0v606h-200v57h463v-57h-199v-606h-64z" />
<glyph unicode="U" horiz-adv-x="655" d="M569 667v-380q0 -104 -18 -151q-26 -71 -84 -109t-138 -38q-79 0 -138.5 37.5t-84.5 103.5q-20 51 -20 159v378h64v-378q0 -99 19 -141q20 -46 64.5 -74t96.5 -28q57 0 103.5 34.5t64.5 89.5q11 36 11 119v378h60z" />
<glyph unicode="V" horiz-adv-x="595" d="M265 0l-254 667h70l187 -504l26 -73q4 -12 8 -34q3 20 34 107l184 504h65l-249 -667h-71z" />
<glyph unicode="W" horiz-adv-x="912" d="M206 0l-195 667h67l101 -354q60 -211 69 -276q12 79 70 281l99 349h81l102 -349q61 -206 73 -284q4 46 17 101q14 58 50 186l98 346h64l-191 -667h-80l-130 444q-36 122 -44 187q-10 -64 -44 -187l-127 -444h-80z" />
<glyph unicode="X" horiz-adv-x="598" d="M13 0l245 350l-227 317h77l154 -218q32 -45 38 -58q11 21 39 61l150 215h74l-225 -317l246 -350h-79l-169 246q-29 41 -38 63q-9 -18 -40 -63l-171 -246h-74z" />
<glyph unicode="Y" horiz-adv-x="588" d="M264 0v281l-253 386h77l164 -256l29 -45q9 -14 16 -30q5 10 17 32l18 27l11 18l162 254h73l-250 -384v-283h-64z" />
<glyph unicode="Z" horiz-adv-x="497" d="M30 0v57l350 549h-341v57h414v-59l-348 -547h358v-57h-433z" />
<glyph unicode="[" horiz-adv-x="317" d="M140 -159h93v-44h-149v923h149v-43h-93v-836z" />
<glyph unicode="\" horiz-adv-x="416" d="M385 -203l-350 923h57l350 -923h-57z" />
<glyph unicode="]" horiz-adv-x="318" d="M84 -159h94v836h-94v43h150v-923h-150v44z" />
<glyph unicode="^" horiz-adv-x="500" d="M30 372l181 296h79l180 -296h-66l-155 249l-153 -249h-66z" />
<glyph unicode="_" horiz-adv-x="500" d="M0 -70h500v-56h-500v56z" />
<glyph unicode="`" horiz-adv-x="500" d="M244 566l-117 131h87l84 -131h-54z" />
<glyph unicode="a" horiz-adv-x="492" d="M420 0h-57q-1 18 -1 37q0 28 2 52q-53 -96 -166 -96q-70 0 -112.5 38.5t-42.5 102.5q0 79 68 120t198 41q25 0 45 -2q0 42 -4 60q-17 86 -118 86q-63 0 -134 -43l1 63q69 33 148 33q113 0 150 -84q16 -37 17 -127l1 -83q1 -92 5 -198zM338 245h-21q-211 0 -211 -113 q0 -40 28.5 -65t73.5 -25q46 0 84 25t52 66q11 34 11 91v20q-8 0 -17 1z" />
<glyph unicode="b" horiz-adv-x="535" d="M76 0l-3 720h62v-245q0 -66 -4 -83q20 45 65 72.5t99 27.5q90 0 143.5 -66.5t53.5 -178.5q0 -98 -43 -170q-50 -84 -155 -84q-113 0 -163 100q2 -42 2 -93h-57zM135 246q0 -90 42 -147t109 -57q65 0 104 53.5t39 144.5q0 94 -37 148.5t-102 54.5q-67 0 -111 -55.5 t-44 -141.5z" />
<glyph unicode="c" horiz-adv-x="428" d="M399 77l6 -60q-51 -20 -125 -20q-104 0 -170.5 69.5t-66.5 177.5t68 176t175 68q60 0 114 -18l-3 -62q-55 23 -107 23q-82 0 -133 -51.5t-51 -134.5q0 -84 50.5 -139.5t126.5 -55.5q62 0 116 27z" />
<glyph unicode="d" d="M462 0h-56q-2 36 -2 100q-16 -47 -61 -77t-100 -30q-91 0 -146 68t-55 181q0 112 53.5 181t141.5 69q111 0 162 -99q-3 40 -3 85v242h61v-535q0 -91 5 -185zM248 42q67 0 109 55.5t42 143.5q0 89 -43.5 145.5t-111.5 56.5q-63 0 -101 -53.5t-38 -143.5q0 -94 38.5 -149 t104.5 -55z" />
<glyph unicode="e" horiz-adv-x="491" d="M104 229q4 -86 49.5 -136.5t119.5 -50.5q73 0 136 37l2 -61q-64 -29 -136 -29q-110 0 -171 68.5t-61 191.5q0 113 58 181t154 68q70 0 117.5 -38t64.5 -108q12 -52 12 -123h-345zM106 279h281q-3 55 -19 90q-35 76 -116 76q-40 0 -73 -23t-53 -64q-14 -30 -20 -79z" />
<glyph unicode="f" horiz-adv-x="324" d="M120 0v433h-102v50h102v54q0 90 18 125q34 63 116 63q22 0 53 -8l-5 -55q-25 10 -44 10q-46 0 -64 -37q-13 -25 -13 -95v-57h113v-50h-113v-433h-61z" />
<glyph unicode="g" horiz-adv-x="544" d="M91 -116q77 -38 143 -38q52 0 91.5 22t57.5 60q17 37 20 141l3 40q-16 -51 -60.5 -83t-99.5 -32q-90 0 -146.5 71t-56.5 185q0 110 55.5 176t146.5 66q83 0 131 -53q15 -17 30 -48q-4 45 -4 94h57l2 -395v-65q0 -119 -63 -178q-62 -57 -163 -57q-67 0 -148 28zM250 47 q66 0 109 56t43 143q0 77 -36 127q-21 30 -53 48t-63 18q-65 0 -104.5 -52.5t-39.5 -138.5q0 -90 40 -145.5t104 -55.5z" />
<glyph unicode="h" horiz-adv-x="529" d="M73 0v720h61v-236q0 -58 -3 -86q52 94 161 94q55 0 95 -28t56 -78q14 -44 14 -160v-226h-61v226q0 106 -13 141q-27 72 -102 72q-39 0 -73.5 -23t-54.5 -63q-19 -38 -19 -127v-226h-61z" />
<glyph unicode="i" horiz-adv-x="207" d="M68 624v82h71v-82h-71zM73 0v485h61v-485h-61z" />
<glyph unicode="j" horiz-adv-x="209" d="M68 622v82h71v-82h-71zM74 -33v518h61v-518q0 -64 -4 -87q-17 -86 -115 -86q-22 0 -48 6l3 56q21 -9 36 -9q50 0 63 48q4 16 4 72z" />
<glyph unicode="k" horiz-adv-x="473" d="M73 0v720h61v-431l223 196h79l-245 -212l272 -273h-83l-246 251v-251h-61z" />
<glyph unicode="l" horiz-adv-x="207" d="M73 0v720h61v-720h-61z" />
<glyph unicode="m" horiz-adv-x="806" d="M79 0v236q0 123 -6 249h59q0 -67 -1 -95q49 102 154 102q54 0 91 -29.5t45 -78.5q16 49 59.5 78.5t98.5 29.5q108 0 142 -103q13 -42 13 -133v-256h-61v253q0 88 -13 121q-25 65 -88 65q-59 0 -98.5 -50t-37.5 -125l1 -34v-230h-61v230q0 97 -7 127q-21 82 -93 82 q-39 0 -71.5 -25t-49.5 -68q-15 -39 -15 -110v-236h-61z" />
<glyph unicode="n" horiz-adv-x="534" d="M78 0v303l1 59q0 15 -6 123h58q2 -26 2 -55q0 -25 -2 -42q22 49 65.5 76.5t98.5 27.5t95 -26t57 -73q15 -39 15 -148v-245h-61v243q0 101 -15 134q-29 62 -100 62q-38 0 -71.5 -20t-52.5 -55q-23 -41 -23 -124v-240h-61z" />
<glyph unicode="o" horiz-adv-x="539" d="M43 241q0 117 62.5 186t167.5 69q101 0 162 -69.5t61 -184.5q0 -114 -62 -183.5t-163 -69.5q-103 0 -165.5 69.5t-62.5 182.5zM106 240q0 -87 46.5 -144.5t117.5 -57.5q70 0 116.5 57.5t46.5 145.5q0 89 -45.5 147.5t-115.5 58.5q-74 0 -120 -57.5t-46 -149.5z" />
<glyph unicode="p" d="M141 -45v-160h-59l-3 528q0 53 -2 99l-3 63h56q2 -37 2 -48l-1 -39v-13q19 49 64 78t102 29q90 0 143.5 -66.5t53.5 -178.5q0 -127 -64 -197q-51 -57 -136 -57q-110 0 -157 94q4 -28 4 -132zM136 245q0 -90 42 -146.5t109 -56.5t105.5 54t38.5 147q0 91 -37.5 145.5 t-100.5 54.5q-71 0 -119 -63q-38 -53 -38 -135z" />
<glyph unicode="q" horiz-adv-x="539" d="M400 -203v203q0 71 4 100q-17 -49 -60.5 -78t-100.5 -29q-91 0 -146 69t-55 184q0 111 54 178.5t142 67.5q56 0 100 -27.5t66 -75.5l-1 14l-1 50v13v19h57l3 -688h-62zM249 42q66 0 109 57t43 144q0 84 -44.5 142t-108.5 58q-67 0 -105 -53t-38 -146t39 -147.5t105 -54.5 z" />
<glyph unicode="r" horiz-adv-x="327" d="M79 0v291q0 92 -6 194h58q1 -34 1 -52q0 -37 -2 -63q15 43 30 63q44 56 103 56q16 0 41 -5v-63q-19 6 -36 6q-84 0 -116 -89q-12 -35 -12 -119v-219h-61z" />
<glyph unicode="s" horiz-adv-x="384" d="M40 16l5 62q64 -34 118 -34q51 0 84.5 24t33.5 60q0 52 -76 88l-49 23q-45 21 -69 39q-45 37 -45 93t44.5 89.5t119.5 33.5q52 0 118 -21l-5 -58q-59 26 -114 26q-45 0 -72.5 -19t-27.5 -50q0 -25 16.5 -42t58.5 -37l47 -22q65 -30 93 -63t28 -80q0 -61 -50 -99t-130 -38 q-66 0 -128 25z" />
<glyph unicode="t" horiz-adv-x="329" d="M301 59l3 -53q-32 -9 -60 -9q-82 0 -110 54q-11 21 -13 41t-2 101v240h-99v50h99v120l61 22v-142h114v-50h-114v-240q0 -59 2 -77t9 -32q19 -34 65 -34q21 0 45 9z" />
<glyph unicode="u" horiz-adv-x="531" d="M458 0h-57q-2 23 -2 55q0 26 2 45q-45 -107 -163 -107q-104 0 -144 90q-13 28 -17 58.5t-4 103.5l-1 240h61l1 -240q0 -64 3.5 -90.5t14.5 -49.5q29 -59 95 -59q43 0 78.5 28t52.5 75q10 25 12 81v13l1 7l-1 235h61l1 -307q0 -97 6 -178z" />
<glyph unicode="v" horiz-adv-x="433" d="M181 0l-168 485h65l60 -180q71 -212 80 -273q9 61 80 274l59 179h62l-166 -485h-72z" />
<glyph unicode="w" horiz-adv-x="757" d="M172 0l-159 485h66l76 -246q45 -146 55 -205q8 59 55 208l76 243h73l79 -243q35 -107 44 -142q14 -62 15 -65q4 33 14 72l7 27q4 18 32 108l75 243h63l-157 -485h-72l-92 276q-34 103 -47 169q-14 -73 -44 -169l-87 -276h-72z" />
<glyph unicode="x" horiz-adv-x="437" d="M13 0l168 256l-155 229h74l82 -127q26 -39 37 -60q14 28 35 60l81 127h71l-153 -229l170 -256h-74l-99 153q-25 39 -35 60q-4 -12 -14 -27l-13 -19l-8 -14l-97 -153h-70z" />
<glyph unicode="y" horiz-adv-x="433" d="M44 -146q24 -7 38 -7q35 0 54.5 21t39.5 80l12 35l-175 502h65l116 -340q21 -59 25 -85q2 18 25 86l113 339h62l-186 -544q-28 -80 -48 -104q-35 -43 -96 -43q-19 0 -51 7z" />
<glyph unicode="z" horiz-adv-x="438" d="M35 0v50l289 383h-279v50h353v-52l-289 -381h292v-50h-366z" />
<glyph unicode="{" horiz-adv-x="500" d="M175 -55v195q0 44 -12.5 65.5t-44.5 31.5v41q31 9 44 31t13 65v210q0 71 31.5 100.5t109.5 34.5l15 1v-43q-58 -1 -79 -22t-21 -77v-207q0 -47 -11 -72t-39 -42q28 -16 39 -42.5t11 -73.5v-199q0 -60 20.5 -81t79.5 -22v-43l-16 1q-79 5 -109.5 36t-30.5 112z" />
<glyph unicode="|" horiz-adv-x="500" d="M220 -167v834h60v-834h-60z" />
<glyph unicode="}" horiz-adv-x="500" d="M169 -161q58 1 78.5 22t20.5 77v207q0 47 11 72t39 42q-28 16 -39 42.5t-11 73.5v199q0 60 -20.5 81t-78.5 22v43l15 -1q79 -5 109.5 -36t30.5 -112v-195q0 -44 13 -65.5t45 -31.5v-41q-31 -9 -44.5 -31t-13.5 -65v-210q0 -71 -31.5 -100.5t-108.5 -34.5l-15 -1v43z" />
<glyph unicode="~" horiz-adv-x="667" d="M131 588l-37 23q31 60 61 85t73 25q39 0 114 -37q69 -34 99 -34q29 0 49.5 16t45.5 57l37 -22q-54 -108 -139 -108q-22 0 -47 9t-92 41q-46 21 -71 21q-52 0 -93 -76z" />
<glyph unicode="&#xa1;" horiz-adv-x="360" d="M141 401v80h79v-80h-79zM141 -185l11 502h56l12 -502h-79z" />
<glyph unicode="&#xa2;" d="M303 5v83q-64 10 -107 42q-45 34 -71 88.5t-26 116.5q0 71 33 129t89 86q34 18 82 26v81h45v-79q58 0 108 -18l-3 -61q-46 19 -105 23v-380q66 3 108 25l6 -59q-47 -20 -114 -20v-83h-45zM303 146v371q-137 -37 -137 -181q0 -72 36 -122t101 -68z" />
<glyph unicode="&#xa3;" d="M67 0v57h99v271h-88v51h88v42q0 92 22 144q20 49 68.5 76.5t113.5 27.5q48 0 111 -21l-9 -58q-59 24 -101 24q-88 0 -123 -70q-19 -38 -19 -123v-42h161v-51h-161v-271h239v-57h-401z" />
<glyph unicode="&#xa4;" d="M80 68l-32 32l73 75q-40 49 -40 114q0 59 40 112l-75 74l32 33l75 -74q54 41 115 41t114 -41l75 74l32 -33l-74 -73q40 -54 40 -114q0 -62 -40 -113l75 -74l-32 -33l-75 75q-52 -41 -114 -41q-59 0 -115 40zM268 155q55 0 93.5 39t38.5 94t-38.5 94.5t-91.5 39.5 q-56 0 -95 -39t-39 -95q0 -55 38.5 -94t93.5 -39z" />
<glyph unicode="&#xa5;" d="M238 0v235h-197v51h194l-57 97h-147v51h117l-137 233h73l146 -253q13 -20 26 -47q9 -15 15 -31q4 10 16 33l16 28l11 20l145 250h67l-136 -233h116v-51h-146l-57 -97h193v-51h-195v-235h-63z" />
<glyph unicode="&#xa6;" horiz-adv-x="500" d="M220 337v330h60v-330h-60zM220 153h60v-320h-60v320z" />
<glyph unicode="&#xa7;" d="M69 -108q95 -45 172 -45q72 0 115 29.5t43 79.5q0 51 -41 83q-18 13 -36 22.5t-109 51.5q-145 67 -145 163q0 78 78 137l36 24q-22 11 -33 17q-28 18 -45.5 51.5t-17.5 69.5q0 37 19.5 71.5t50.5 53.5q51 31 132 31q75 0 156 -28l-8 -63q-75 34 -141 34q-62 0 -100.5 -28 t-38.5 -73q0 -35 24 -59.5t92 -57.5l69 -34q137 -67 137 -170q0 -87 -97 -151q26 -12 37 -22q24 -19 39 -52t15 -67q0 -79 -63 -126.5t-167 -47.5q-83 0 -183 39zM307 366l-87 45q-49 -37 -67.5 -63t-18.5 -58q0 -42 32 -71q21 -20 90 -53l82 -39q74 59 74 119 q0 37 -23.5 63.5t-81.5 56.5z" />
<glyph unicode="&#xa8;" horiz-adv-x="500" d="M301 584v87h70v-87h-70zM130 584v87h70v-87h-70z" />
<glyph unicode="&#xa9;" horiz-adv-x="796" d="M55 333q0 144 101.5 244.5t246.5 100.5q139 0 239 -101.5t100 -243.5t-100.5 -243t-242.5 -101t-243 101t-101 243zM93 333q0 -128 90 -219t216 -91t215.5 91t89.5 219q0 127 -89 219t-212 92q-130 0 -220 -90.5t-90 -220.5zM514 206l2 -46q-41 -15 -91 -15 q-100 0 -158 52.5t-58 143.5q0 86 58.5 138.5t154.5 52.5q48 0 95 -17l-4 -44l-6 2q-54 18 -87 18q-73 0 -117 -42t-44 -112t44 -110.5t118 -40.5q48 0 93 20z" />
<glyph unicode="&#xaa;" horiz-adv-x="343" d="M249 418l-6 -7q-31 -37 -92 -37q-47 0 -75 24t-28 64q0 100 172 100q14 0 24 -1q0 40 -17 58t-55 18q-37 0 -90 -28l1 48q48 21 98 21q74 0 99 -52q10 -22 11 -78l1 -48q0 -15 1.5 -56.5t1.5 -60.5v-5h-45q-1 12 -1 23v17zM237 523h-12q-128 0 -128 -63q0 -21 16.5 -34.5 t42.5 -13.5q54 0 77 42q11 19 11 61v7q-3 0 -7 1zM48 293v41h247v-41h-247z" />
<glyph unicode="&#xab;" d="M261 247l133 196h57l-127 -196l127 -197h-58zM226 50l-133 197l134 196h56l-127 -196l127 -197h-57z" />
<glyph unicode="&#xac;" horiz-adv-x="500" d="M33 211v56h433v-267h-60v211h-373z" />
<glyph unicode="&#xad;" horiz-adv-x="220" d="M0 222v51h220v-51h-220z" />
<glyph unicode="&#xae;" horiz-adv-x="796" d="M55 333q0 144 101.5 244.5t246.5 100.5q139 0 239 -101.5t100 -243.5t-100.5 -243t-242.5 -101t-243 101t-101 243zM93 333q0 -128 90 -219t216 -91t215.5 91t89.5 219q0 127 -89 219t-212 92q-130 0 -220 -90.5t-90 -220.5zM284 147v382h83q70 0 98 -16q51 -29 51 -85 q0 -32 -20 -57t-54 -35q21 -10 41 -52l66 -137h-52l-56 117q-18 38 -31 46.5t-51 8.5h-27v-172h-48zM332 360h27q57 0 81 19q26 19 26 48q0 35 -33 52q-18 9 -67 9h-34v-128z" />
<glyph unicode="&#xaf;" horiz-adv-x="500" d="M124 600v49h252v-49h-252z" />
<glyph unicode="&#xb0;" horiz-adv-x="374" d="M187 460q-58 0 -98.5 40t-40.5 97q0 55 41 94.5t98 39.5q58 0 98.5 -39.5t40.5 -95.5t-40.5 -96t-98.5 -40zM187 499q40 0 69 28.5t29 68.5t-28.5 68t-69.5 28q-40 0 -69 -28t-29 -67q0 -41 28.5 -69.5t69.5 -28.5z" />
<glyph unicode="&#xb1;" d="M242 123v191h-197v53h197v190h53v-190h197v-53h-197v-191h-53zM45 20v53h447v-53h-447z" />
<glyph unicode="&#xb2;" horiz-adv-x="247" d="M26 400v29q75 71 105.5 110t30.5 65q0 17 -14.5 29t-35.5 12q-30 0 -71 -22l-7 36q46 20 80 20q38 0 62 -19.5t24 -51.5q0 -33 -25.5 -70t-96.5 -106h130v-32h-182z" />
<glyph unicode="&#xb3;" horiz-adv-x="247" d="M42 630l-3 35q36 13 72 13q44 0 71 -20t27 -52q0 -38 -45 -61q47 -24 47 -66q0 -37 -30 -59t-80 -22q-37 0 -76 12l5 35q37 -16 69 -16t53 14.5t21 36.5q0 15 -10.5 27t-26.5 16q-17 4 -50 4h-19v32h20q84 0 84 45q0 18 -17 29.5t-44 11.5q-28 0 -68 -15z" />
<glyph unicode="&#xb4;" horiz-adv-x="500" d="M202 566l84 131h87l-117 -131h-54z" />
<glyph unicode="&#xb5;" horiz-adv-x="500" d="M112 63v-229h-60v646h60v-276q0 -54 8.5 -83t31.5 -51q38 -36 94 -36q65 0 104 51q38 47 38 129v266h60v-480h-60v92q-24 -55 -58.5 -80t-85.5 -25q-83 0 -132 76z" />
<glyph unicode="&#xb6;" d="M209 -203v516h-15q-76 0 -124.5 48.5t-48.5 125.5q0 49 21 89.5t58 62.5q47 28 127 28h240v-48h-57v-822h-53v822h-95v-822h-53z" />
<glyph unicode="&#xb7;" horiz-adv-x="268" d="M95 206v82h79v-82h-79z" />
<glyph unicode="&#xb8;" horiz-adv-x="500" d="M201 -71l42 71h38l-30 -51q9 2 18 2q33 0 55 -19t22 -47q0 -31 -29 -53t-70 -22q-42 0 -92 23l17 30q41 -19 69 -19q22 0 36.5 10.5t14.5 25.5q0 17 -13.5 27.5t-35.5 10.5q-12 0 -28 -5z" />
<glyph unicode="&#xb9;" horiz-adv-x="247" d="M120 400v231l-44 -34l-22 24l72 55h30v-276h-36z" />
<glyph unicode="&#xba;" horiz-adv-x="391" d="M197 369q-67 0 -108 42.5t-41 111.5q0 71 41 113t109 42q66 0 105.5 -42.5t39.5 -112.5q0 -69 -40.5 -111.5t-105.5 -42.5zM196 407q42 0 70 33t28 83t-27.5 83.5t-69.5 33.5q-44 0 -72 -33t-28 -85q0 -50 28 -82.5t71 -32.5zM58 293v41h275v-41h-275z" />
<glyph unicode="&#xbb;" d="M254 50l127 197l-127 196h56l134 -196l-133 -197h-57zM86 50l127 197l-127 196h57l133 -196l-133 -197h-57z" />
<glyph unicode="&#xbc;" horiz-adv-x="837" d="M212 -31l363 729h49l-362 -729h-50zM174 267v303v41l-13 -12l-52 -41l-30 32l102 79h42v-402h-49zM500 92v41l194 270h58l1 -268h63v-43h-63v-92h-49v92h-204zM555 135h149l1 211z" />
<glyph unicode="&#xbd;" horiz-adv-x="837" d="M212 -31l363 729h49l-362 -729h-50zM174 267v303v41l-13 -12l-52 -41l-30 32l102 79h42v-402h-49zM519 0v39q109 103 154 162.5t45 97.5q0 26 -21.5 44t-53.5 18q-45 0 -102 -32l-10 49q63 28 115 28q55 0 89.5 -28.5t34.5 -73.5q0 -44 -25 -84.5t-101 -119.5 q-44 -46 -57 -57h26h169v-43h-263z" />
<glyph unicode="&#xbe;" horiz-adv-x="837" d="M213 -31l363 729h49l-363 -729h-49zM35 280l6 48q55 -22 100 -22q48 0 79 21.5t31 55.5q0 23 -15.5 41t-40.5 24q-23 6 -73 6h-26v43h27q124 0 124 68q0 29 -25 46t-66 17t-97 -22l-4 48q53 18 103 18q63 0 102 -28.5t39 -74.5q0 -29 -19.5 -55t-50.5 -36 q33 -10 53.5 -36.5t20.5 -59.5q0 -53 -43.5 -85.5t-116.5 -32.5q-54 0 -108 16zM500 92v41l195 270h58v-268h63v-43h-63l1 -92h-49v92h-205zM555 135h150l1 211z" />
<glyph unicode="&#xbf;" horiz-adv-x="493" d="M216 401v80h79v-80h-79zM387 -105l3 -61q-66 -24 -135 -24q-86 0 -137 45t-51 121q0 57 36 111q15 23 92 116q32 39 32 99v15h58q-1 -71 -15.5 -101.5t-92.5 -121.5q-47 -53 -47 -113q0 -52 36 -83t95 -31q55 0 126 28z" />
<glyph unicode="&#xc0;" horiz-adv-x="641" d="M291 731l-119 128h91l83 -128h-55zM11 0l269 667h77l273 -667h-69l-73 179h-340l-72 -179h-65zM171 236h293l-121 302q-16 39 -25 71q-4 -11 -27 -71z" />
<glyph unicode="&#xc1;" horiz-adv-x="641" d="M289 731l84 128h90l-118 -128h-56zM11 0l269 667h77l273 -667h-69l-73 179h-340l-72 -179h-65zM171 236h293l-121 302q-16 39 -25 71q-4 -11 -27 -71z" />
<glyph unicode="&#xc2;" horiz-adv-x="641" d="M173 731l115 128h73l115 -128h-70l-82 85l-82 -85h-69zM11 0l269 667h77l273 -667h-69l-73 179h-340l-72 -179h-65zM171 236h293l-121 302q-16 39 -25 71q-4 -11 -27 -71z" />
<glyph unicode="&#xc3;" horiz-adv-x="641" d="M180 748q7 44 30 68t57 24q16 0 46 -11l50 -19q24 -9 31 -9q17 0 26 8.5t13 30.5h42q-12 -90 -85 -90q-19 0 -40 8l-51 20q-24 10 -38 10q-30 0 -40 -40h-41zM11 0l269 667h77l273 -667h-69l-73 179h-340l-72 -179h-65zM171 236h293l-121 302q-16 39 -25 71 q-4 -11 -27 -71z" />
<glyph unicode="&#xc4;" horiz-adv-x="641" d="M378 746v89h75v-89h-75zM188 746v89h75v-89h-75zM11 0l269 667h77l273 -667h-69l-73 179h-340l-72 -179h-65zM171 236h293l-121 302q-16 39 -25 71q-4 -11 -27 -71z" />
<glyph unicode="&#xc5;" horiz-adv-x="641" d="M324 708q-38 0 -64 26t-26 64q0 37 26.5 63t64.5 26q36 0 62 -26.5t26 -63.5t-26 -63t-63 -26zM324 749q20 0 34 14.5t14 33.5q0 20 -14 34.5t-34 14.5t-34.5 -14t-14.5 -34t14.5 -34.5t34.5 -14.5zM11 0l269 667h77l273 -667h-69l-73 179h-340l-72 -179h-65zM171 236 h293l-121 302q-16 39 -25 71q-4 -11 -27 -71z" />
<glyph unicode="&#xc6;" horiz-adv-x="850" d="M4 0l398 664h375v-57h-267l17 -235h237v-57h-234l18 -258h241v-57h-302l-12 179h-292l-109 -179h-70zM217 236h254l-26 383z" />
<glyph unicode="&#xc7;" horiz-adv-x="589" d="M290 -71l44 73q-83 13 -144 51q-63 40 -99.5 116.5t-36.5 167.5q0 151 95 242t253 91q80 0 149 -27l-5 -61q-73 31 -149 31q-125 0 -200.5 -77.5t-75.5 -204.5t75 -202t203 -75q82 0 148 31l3 -65q-63 -23 -141 -23q-20 0 -36 1l-29 -49q10 2 19 2q34 0 56 -19t22 -49 q0 -35 -30 -57.5t-76 -22.5q-42 0 -91 23l17 33q39 -18 70 -18q21 0 35.5 11.5t14.5 27.5q0 17 -13.5 27.5t-35.5 10.5q-12 0 -28 -5z" />
<glyph unicode="&#xc8;" horiz-adv-x="485" d="M236 731l-119 128h91l83 -128h-55zM86 0v664h327v-57h-263v-236h251v-57h-251v-257h275v-57h-339z" />
<glyph unicode="&#xc9;" horiz-adv-x="485" d="M227 731l84 128h90l-118 -128h-56zM86 0v664h327v-57h-263v-236h251v-57h-251v-257h275v-57h-339z" />
<glyph unicode="&#xca;" horiz-adv-x="485" d="M102 731l115 128h73l115 -128h-70l-82 85l-82 -85h-69zM86 0v664h327v-57h-263v-236h251v-57h-251v-257h275v-57h-339z" />
<glyph unicode="&#xcb;" horiz-adv-x="485" d="M311 746v89h75v-89h-75zM121 746v89h75v-89h-75zM86 0v664h327v-57h-263v-236h251v-57h-251v-257h275v-57h-339z" />
<glyph unicode="&#xcc;" horiz-adv-x="249" d="M101 731l-112 128h87l77 -128h-52zM93 0v667h64v-667h-64z" />
<glyph unicode="&#xcd;" horiz-adv-x="249" d="M106 731l77 128h88l-112 -128h-53zM93 0v667h64v-667h-64z" />
<glyph unicode="&#xce;" horiz-adv-x="249" d="M5 731l86 128h74l86 -128h-64l-59 87l-59 -87h-64zM93 0v667h64v-667h-64z" />
<glyph unicode="&#xcf;" horiz-adv-x="249" d="M148 746v89h70v-89h-70zM32 746v89h70v-89h-70zM93 0v667h64v-667h-64z" />
<glyph unicode="&#xd0;" horiz-adv-x="642" d="M86 0v319h-73v56h73v292h91q104 0 160 -9t99 -33q71 -39 111.5 -117t40.5 -177q0 -194 -148 -280q-88 -51 -250 -51h-104zM150 57h68q143 0 223 73t80 203q0 79 -31 142.5t-87 96.5q-64 38 -190 38h-63v-235h187v-56h-187v-262z" />
<glyph unicode="&#xd1;" horiz-adv-x="654" d="M206 748q7 44 30 68t57 24q16 0 46 -11l50 -19q24 -9 31 -9q17 0 26 8.5t13 30.5h42q-12 -90 -85 -90q-19 0 -40 8l-51 20q-24 10 -38 10q-30 0 -40 -40h-41zM86 0v667h75l275 -452q65 -107 85 -171q-6 37 -7.5 51t-3.5 59t-2 125v388h60v-667h-72l-272 445 q-72 117 -86 167q6 -54 6 -79q2 -80 2 -118v-415h-60z" />
<glyph unicode="&#xd2;" horiz-adv-x="703" d="M325 731l-119 128h91l83 -128h-55zM134 87q-79 100 -79 244q0 145 75 245q78 102 221 102q133 0 215 -96.5t82 -254.5q0 -154 -80.5 -246t-215.5 -92q-139 0 -218 98zM122 331q0 -128 63 -206.5t167 -78.5q103 0 166 77t63 204q0 126 -60 211q-28 39 -71.5 61t-93.5 22 q-108 0 -171 -78t-63 -212z" />
<glyph unicode="&#xd3;" horiz-adv-x="703" d="M323 731l84 128h90l-118 -128h-56zM134 87q-79 100 -79 244q0 145 75 245q78 102 221 102q133 0 215 -96.5t82 -254.5q0 -154 -80.5 -246t-215.5 -92q-139 0 -218 98zM122 331q0 -128 63 -206.5t167 -78.5q103 0 166 77t63 204q0 126 -60 211q-28 39 -71.5 61t-93.5 22 q-108 0 -171 -78t-63 -212z" />
<glyph unicode="&#xd4;" horiz-adv-x="703" d="M207 731l115 128h73l115 -128h-70l-82 85l-82 -85h-69zM134 87q-79 100 -79 244q0 145 75 245q78 102 221 102q133 0 215 -96.5t82 -254.5q0 -154 -80.5 -246t-215.5 -92q-139 0 -218 98zM122 331q0 -128 63 -206.5t167 -78.5q103 0 166 77t63 204q0 126 -60 211 q-28 39 -71.5 61t-93.5 22q-108 0 -171 -78t-63 -212z" />
<glyph unicode="&#xd5;" horiz-adv-x="703" d="M221 748q7 44 30 68t57 24q16 0 46 -11l50 -19q24 -9 31 -9q17 0 26 8.5t13 30.5h42q-12 -90 -85 -90q-19 0 -40 8l-51 20q-24 10 -38 10q-30 0 -40 -40h-41zM134 87q-79 100 -79 244q0 145 75 245q78 102 221 102q133 0 215 -96.5t82 -254.5q0 -154 -80.5 -246 t-215.5 -92q-139 0 -218 98zM122 331q0 -128 63 -206.5t167 -78.5q103 0 166 77t63 204q0 126 -60 211q-28 39 -71.5 61t-93.5 22q-108 0 -171 -78t-63 -212z" />
<glyph unicode="&#xd6;" horiz-adv-x="703" d="M413 746v89h75v-89h-75zM223 746v89h75v-89h-75zM134 87q-79 100 -79 244q0 145 75 245q78 102 221 102q133 0 215 -96.5t82 -254.5q0 -154 -80.5 -246t-215.5 -92q-139 0 -218 98zM122 331q0 -128 63 -206.5t167 -78.5q103 0 166 77t63 204q0 126 -60 211 q-28 39 -71.5 61t-93.5 22q-108 0 -171 -78t-63 -212z" />
<glyph unicode="&#xd7;" d="M122 156l-38 38l146 146l-146 146l38 38l146 -146l146 146l38 -38l-146 -146l146 -146l-38 -38l-146 146z" />
<glyph unicode="&#xd8;" horiz-adv-x="703" d="M56 23l67 79q-68 101 -68 231q0 141 76 243t214 102q118 0 199 -72l64 77l38 -33l-69 -82q71 -104 71 -240q0 -154 -80.5 -246.5t-214.5 -92.5q-116 0 -197 75l-61 -73zM165 150l336 410q-51 61 -149 61q-105 0 -167.5 -79t-62.5 -211q0 -50 9 -88.5t34 -92.5zM198 110 q65 -64 154 -64q102 0 165.5 77t63.5 200q0 102 -46 197z" />
<glyph unicode="&#xd9;" horiz-adv-x="655" d="M311 731l-119 128h91l83 -128h-55zM569 667v-380q0 -104 -18 -151q-26 -71 -84 -109t-138 -38q-79 0 -138.5 37.5t-84.5 103.5q-20 51 -20 159v378h64v-378q0 -99 19 -141q20 -46 64.5 -74t96.5 -28q57 0 103.5 34.5t64.5 89.5q11 36 11 119v378h60z" />
<glyph unicode="&#xda;" horiz-adv-x="655" d="M302 731l84 128h90l-118 -128h-56zM569 667v-380q0 -104 -18 -151q-26 -71 -84 -109t-138 -38q-79 0 -138.5 37.5t-84.5 103.5q-20 51 -20 159v378h64v-378q0 -99 19 -141q20 -46 64.5 -74t96.5 -28q57 0 103.5 34.5t64.5 89.5q11 36 11 119v378h60z" />
<glyph unicode="&#xdb;" horiz-adv-x="655" d="M186 731l115 128h73l115 -128h-70l-82 85l-82 -85h-69zM569 667v-380q0 -104 -18 -151q-26 -71 -84 -109t-138 -38q-79 0 -138.5 37.5t-84.5 103.5q-20 51 -20 159v378h64v-378q0 -99 19 -141q20 -46 64.5 -74t96.5 -28q57 0 103.5 34.5t64.5 89.5q11 36 11 119v378h60z " />
<glyph unicode="&#xdc;" horiz-adv-x="655" d="M392 746v89h75v-89h-75zM202 746v89h75v-89h-75zM569 667v-380q0 -104 -18 -151q-26 -71 -84 -109t-138 -38q-79 0 -138.5 37.5t-84.5 103.5q-20 51 -20 159v378h64v-378q0 -99 19 -141q20 -46 64.5 -74t96.5 -28q57 0 103.5 34.5t64.5 89.5q11 36 11 119v378h60z" />
<glyph unicode="&#xdd;" horiz-adv-x="588" d="M269 731l84 128h90l-118 -128h-56zM264 0v281l-253 386h77l164 -256l29 -45q9 -14 16 -30q5 10 17 32l18 27l11 18l162 254h73l-250 -384v-283h-64z" />
<glyph unicode="&#xde;" horiz-adv-x="487" d="M86 0v667h64v-98h62q107 0 158 -31q41 -25 64.5 -67.5t23.5 -92.5q0 -96 -77 -149q-60 -41 -170 -41h-61v-188h-64zM150 245h60q92 0 136 35q45 36 45 99q0 75 -63 112q-38 21 -116 21h-62v-267z" />
<glyph unicode="&#xdf;" horiz-adv-x="531" d="M73 0v403q0 116 3.5 150.5t18.5 66.5q48 108 173 108q83 0 132.5 -48.5t49.5 -129.5q0 -131 -130 -164q79 -4 123.5 -53.5t44.5 -132.5q0 -95 -57 -151t-153 -56q-39 0 -80 14l3 56q42 -17 77 -17q66 0 106.5 43.5t40.5 113.5q0 45 -21.5 80.5t-58.5 51.5t-108 16h-10v56 h9q67 0 109 39t42 102q0 56 -33 91.5t-85 35.5q-86 0 -119 -89q-10 -28 -13 -60.5t-3 -122.5v-403h-61z" />
<glyph unicode="&#xe0;" horiz-adv-x="492" d="M225 566l-117 131h87l84 -131h-54zM420 0h-57q-1 18 -1 37q0 28 2 52q-53 -96 -166 -96q-70 0 -112.5 38.5t-42.5 102.5q0 79 68 120t198 41q25 0 45 -2q0 42 -4 60q-17 86 -118 86q-63 0 -134 -43l1 63q69 33 148 33q113 0 150 -84q16 -37 17 -127l1 -83q1 -92 5 -198z M338 245h-21q-211 0 -211 -113q0 -40 28.5 -65t73.5 -25q46 0 84 25t52 66q11 34 11 91v20q-8 0 -17 1z" />
<glyph unicode="&#xe1;" horiz-adv-x="492" d="M216 566l84 131h87l-117 -131h-54zM420 0h-57q-1 18 -1 37q0 28 2 52q-53 -96 -166 -96q-70 0 -112.5 38.5t-42.5 102.5q0 79 68 120t198 41q25 0 45 -2q0 42 -4 60q-17 86 -118 86q-63 0 -134 -43l1 63q69 33 148 33q113 0 150 -84q16 -37 17 -127l1 -83q1 -92 5 -198z M338 245h-21q-211 0 -211 -113q0 -40 28.5 -65t73.5 -25q46 0 84 25t52 66q11 34 11 91v20q-8 0 -17 1z" />
<glyph unicode="&#xe2;" horiz-adv-x="492" d="M106 566l105 131h74l105 -131h-63l-79 93l-79 -93h-63zM420 0h-57q-1 18 -1 37q0 28 2 52q-53 -96 -166 -96q-70 0 -112.5 38.5t-42.5 102.5q0 79 68 120t198 41q25 0 45 -2q0 42 -4 60q-17 86 -118 86q-63 0 -134 -43l1 63q69 33 148 33q113 0 150 -84q16 -37 17 -127 l1 -83q1 -92 5 -198zM338 245h-21q-211 0 -211 -113q0 -40 28.5 -65t73.5 -25q46 0 84 25t52 66q11 34 11 91v20q-8 0 -17 1z" />
<glyph unicode="&#xe3;" horiz-adv-x="492" d="M119 587q1 41 21 63.5t55 22.5q24 0 51 -11l31 -13q24 -10 39 -10t23 7.5t12 27.5h38q-8 -86 -73 -86q-23 0 -51 11l-35 13q-27 9 -38 9q-26 0 -35 -34h-38zM420 0h-57q-1 18 -1 37q0 28 2 52q-53 -96 -166 -96q-70 0 -112.5 38.5t-42.5 102.5q0 79 68 120t198 41 q25 0 45 -2q0 42 -4 60q-17 86 -118 86q-63 0 -134 -43l1 63q69 33 148 33q113 0 150 -84q16 -37 17 -127l1 -83q1 -92 5 -198zM338 245h-21q-211 0 -211 -113q0 -40 28.5 -65t73.5 -25q46 0 84 25t52 66q11 34 11 91v20q-8 0 -17 1z" />
<glyph unicode="&#xe4;" horiz-adv-x="492" d="M296 584v87h70v-87h-70zM125 584v87h70v-87h-70zM420 0h-57q-1 18 -1 37q0 28 2 52q-53 -96 -166 -96q-70 0 -112.5 38.5t-42.5 102.5q0 79 68 120t198 41q25 0 45 -2q0 42 -4 60q-17 86 -118 86q-63 0 -134 -43l1 63q69 33 148 33q113 0 150 -84q16 -37 17 -127l1 -83 q1 -92 5 -198zM338 245h-21q-211 0 -211 -113q0 -40 28.5 -65t73.5 -25q46 0 84 25t52 66q11 34 11 91v20q-8 0 -17 1z" />
<glyph unicode="&#xe5;" horiz-adv-x="492" d="M250 547q-38 0 -64 26.5t-26 63.5t26.5 63t64.5 26q36 0 62 -26.5t26 -63.5t-26 -63t-63 -26zM250 588q20 0 34 14t14 34t-14 34.5t-34 14.5t-34.5 -14t-14.5 -34t14.5 -34.5t34.5 -14.5zM420 0h-57q-1 18 -1 37q0 28 2 52q-53 -96 -166 -96q-70 0 -112.5 38.5 t-42.5 102.5q0 79 68 120t198 41q25 0 45 -2q0 42 -4 60q-17 86 -118 86q-63 0 -134 -43l1 63q69 33 148 33q113 0 150 -84q16 -37 17 -127l1 -83q1 -92 5 -198zM338 245h-21q-211 0 -211 -113q0 -40 28.5 -65t73.5 -25q46 0 84 25t52 66q11 34 11 91v20q-8 0 -17 1z" />
<glyph unicode="&#xe6;" horiz-adv-x="765" d="M684 73l2 -60q-70 -20 -127 -20q-77 0 -128 33.5t-60 90.5q-8 -60 -50 -92t-114 -32q-73 0 -118.5 38.5t-45.5 100.5q0 56 39 94t110 51q45 9 122 9h26q0 73 -31.5 112t-90.5 39q-61 0 -123 -41l-2 62q71 33 128 33q64 0 105.5 -29t48.5 -79q12 49 56 78.5t105 29.5 q91 0 138.5 -62.5t47.5 -181.5v-12h-325q3 -91 47 -140t122 -49q50 0 118 27zM401 285h258q-3 74 -34.5 115.5t-86.5 41.5q-75 0 -115 -78q-16 -32 -22 -79zM340 237h-29q-205 0 -205 -103q0 -38 29 -63t75 -25q44 0 76 25.5t45 71.5q8 28 9 94z" />
<glyph unicode="&#xe7;" horiz-adv-x="428" d="M195 -71l42 71q-42 4 -90 35q-49 31 -76.5 87t-27.5 122q0 108 68 176t175 68q60 0 114 -18l-3 -62q-55 23 -107 23q-82 0 -133 -51.5t-51 -134.5q0 -84 50.5 -139.5t126.5 -55.5q62 0 116 27l6 -60q-45 -19 -132 -20l-28 -48q9 2 18 2q32 0 54 -19t22 -47q0 -31 -29 -53 t-70 -22q-42 0 -91 23l17 30q41 -19 68 -19q22 0 36.5 10.5t14.5 25.5q0 17 -13.5 27.5t-35.5 10.5q-11 0 -28 -5z" />
<glyph unicode="&#xe8;" horiz-adv-x="491" d="M234 566l-117 131h87l84 -131h-54zM104 229q4 -86 49.5 -136.5t119.5 -50.5q73 0 136 37l2 -61q-64 -29 -136 -29q-110 0 -171 68.5t-61 191.5q0 113 58 181t154 68q70 0 117.5 -38t64.5 -108q12 -52 12 -123h-345zM106 279h281q-3 55 -19 90q-35 76 -116 76 q-40 0 -73 -23t-53 -64q-14 -30 -20 -79z" />
<glyph unicode="&#xe9;" horiz-adv-x="491" d="M224 566l84 131h87l-117 -131h-54zM104 229q4 -86 49.5 -136.5t119.5 -50.5q73 0 136 37l2 -61q-64 -29 -136 -29q-110 0 -171 68.5t-61 191.5q0 113 58 181t154 68q70 0 117.5 -38t64.5 -108q12 -52 12 -123h-345zM106 279h281q-3 55 -19 90q-35 76 -116 76 q-40 0 -73 -23t-53 -64q-14 -30 -20 -79z" />
<glyph unicode="&#xea;" horiz-adv-x="491" d="M117 566l105 131h74l105 -131h-63l-79 93l-79 -93h-63zM104 229q4 -86 49.5 -136.5t119.5 -50.5q73 0 136 37l2 -61q-64 -29 -136 -29q-110 0 -171 68.5t-61 191.5q0 113 58 181t154 68q70 0 117.5 -38t64.5 -108q12 -52 12 -123h-345zM106 279h281q-3 55 -19 90 q-35 76 -116 76q-40 0 -73 -23t-53 -64q-14 -30 -20 -79z" />
<glyph unicode="&#xeb;" horiz-adv-x="491" d="M310 584v87h70v-87h-70zM139 584v87h70v-87h-70zM104 229q4 -86 49.5 -136.5t119.5 -50.5q73 0 136 37l2 -61q-64 -29 -136 -29q-110 0 -171 68.5t-61 191.5q0 113 58 181t154 68q70 0 117.5 -38t64.5 -108q12 -52 12 -123h-345zM106 279h281q-3 55 -19 90 q-35 76 -116 76q-40 0 -73 -23t-53 -64q-14 -30 -20 -79z" />
<glyph unicode="&#xec;" horiz-adv-x="207" d="M75 566l-97 131h77l74 -131h-54zM73 0v485h61v-485h-61z" />
<glyph unicode="&#xed;" horiz-adv-x="207" d="M84 566l71 131h80l-99 -131h-52zM73 0v485h61v-485h-61z" />
<glyph unicode="&#xee;" horiz-adv-x="207" d="M-8 566l81 131h68l82 -131h-57l-59 95l-58 -95h-57zM74 0v485h61v-485h-61z" />
<glyph unicode="&#xef;" horiz-adv-x="207" d="M127 584v87h65v-87h-65zM15 584v87h65v-87h-65zM73 0v485h61v-485h-61z" />
<glyph unicode="&#xf0;" horiz-adv-x="539" d="M440 707l-90 -60q71 -62 109 -161t38 -223q0 -113 -42 -181q-28 -44 -77 -68.5t-109 -24.5q-101 0 -163.5 69.5t-62.5 181.5q0 114 61.5 184t161.5 70q65 0 107 -28q22 -14 46 -51q-24 128 -118 201l-100 -69l-26 36l87 60q-46 22 -103 35l12 45q78 -9 140 -47l99 68z M106 239q0 -85 47 -143t117 -58q73 0 118.5 56.5t45.5 146.5q0 91 -45 148t-118 57q-83 0 -129 -75q-36 -59 -36 -132z" />
<glyph unicode="&#xf1;" horiz-adv-x="534" d="M146 587q1 41 21 63.5t55 22.5q24 0 51 -11l31 -13q24 -10 39 -10t23 7.5t12 27.5h38q-8 -86 -73 -86q-23 0 -51 11l-35 13q-27 9 -38 9q-26 0 -35 -34h-38zM78 0v303l1 59q0 15 -6 123h58q2 -26 2 -55q0 -25 -2 -42q22 49 65.5 76.5t98.5 27.5t95 -26t57 -73 q15 -39 15 -148v-245h-61v243q0 101 -15 134q-29 62 -100 62q-38 0 -71.5 -20t-52.5 -55q-23 -41 -23 -124v-240h-61z" />
<glyph unicode="&#xf2;" horiz-adv-x="539" d="M251 566l-117 131h87l84 -131h-54zM43 241q0 117 62.5 186t167.5 69q101 0 162 -69.5t61 -184.5q0 -114 -62 -183.5t-163 -69.5q-103 0 -165.5 69.5t-62.5 182.5zM106 240q0 -87 46.5 -144.5t117.5 -57.5q70 0 116.5 57.5t46.5 145.5q0 89 -45.5 147.5t-115.5 58.5 q-74 0 -120 -57.5t-46 -149.5z" />
<glyph unicode="&#xf3;" horiz-adv-x="539" d="M248 566l84 131h87l-117 -131h-54zM43 241q0 117 62.5 186t167.5 69q101 0 162 -69.5t61 -184.5q0 -114 -62 -183.5t-163 -69.5q-103 0 -165.5 69.5t-62.5 182.5zM106 240q0 -87 46.5 -144.5t117.5 -57.5q70 0 116.5 57.5t46.5 145.5q0 89 -45.5 147.5t-115.5 58.5 q-74 0 -120 -57.5t-46 -149.5z" />
<glyph unicode="&#xf4;" horiz-adv-x="539" d="M134 566l105 131h74l105 -131h-63l-79 93l-79 -93h-63zM43 241q0 117 62.5 186t167.5 69q101 0 162 -69.5t61 -184.5q0 -114 -62 -183.5t-163 -69.5q-103 0 -165.5 69.5t-62.5 182.5zM106 240q0 -87 46.5 -144.5t117.5 -57.5q70 0 116.5 57.5t46.5 145.5 q0 89 -45.5 147.5t-115.5 58.5q-74 0 -120 -57.5t-46 -149.5z" />
<glyph unicode="&#xf5;" horiz-adv-x="539" d="M155 587q1 41 21 63.5t55 22.5q24 0 51 -11l31 -13q24 -10 39 -10t22.5 7.5t12.5 27.5h38q-8 -86 -73 -86q-23 0 -51 11l-35 13q-27 9 -38 9q-26 0 -35 -34h-38zM43 241q0 117 62.5 186t167.5 69q101 0 162 -69.5t61 -184.5q0 -114 -62 -183.5t-163 -69.5 q-103 0 -165.5 69.5t-62.5 182.5zM106 240q0 -87 46.5 -144.5t117.5 -57.5q70 0 116.5 57.5t46.5 145.5q0 89 -45.5 147.5t-115.5 58.5q-74 0 -120 -57.5t-46 -149.5z" />
<glyph unicode="&#xf6;" horiz-adv-x="539" d="M323 584v87h70v-87h-70zM152 584v87h70v-87h-70zM43 241q0 117 62.5 186t167.5 69q101 0 162 -69.5t61 -184.5q0 -114 -62 -183.5t-163 -69.5q-103 0 -165.5 69.5t-62.5 182.5zM106 240q0 -87 46.5 -144.5t117.5 -57.5q70 0 116.5 57.5t46.5 145.5q0 89 -45.5 147.5 t-115.5 58.5q-74 0 -120 -57.5t-46 -149.5z" />
<glyph unicode="&#xf7;" d="M225 434v87h87v-87h-87zM45 314v53h447v-53h-447zM225 160v87h87v-87h-87z" />
<glyph unicode="&#xf8;" horiz-adv-x="539" d="M42 16l49 60q-48 68 -48 166q0 115 62.5 184.5t165.5 69.5q79 0 136 -42l46 55l38 -32l-48 -58q53 -73 53 -177q0 -114 -62 -183.5t-163 -69.5q-85 0 -146 50l-46 -54zM134 123l235 287q-41 37 -99 37q-72 0 -118 -57.5t-46 -148.5q0 -68 28 -118zM163 83q45 -45 107 -45 q71 0 117 58t46 146q0 77 -33 130z" />
<glyph unicode="&#xf9;" horiz-adv-x="531" d="M247 566l-117 131h87l84 -131h-54zM458 0h-57q-2 23 -2 55q0 26 2 45q-45 -107 -163 -107q-104 0 -144 90q-13 28 -17 58.5t-4 103.5l-1 240h61l1 -240q0 -64 3.5 -90.5t14.5 -49.5q29 -59 95 -59q43 0 78.5 28t52.5 75q10 25 12 81v13l1 7l-1 235h61l1 -307 q0 -97 6 -178z" />
<glyph unicode="&#xfa;" horiz-adv-x="531" d="M236 566l84 131h87l-117 -131h-54zM458 0h-57q-2 23 -2 55q0 26 2 45q-45 -107 -163 -107q-104 0 -144 90q-13 28 -17 58.5t-4 103.5l-1 240h61l1 -240q0 -64 3.5 -90.5t14.5 -49.5q29 -59 95 -59q43 0 78.5 28t52.5 75q10 25 12 81v13l1 7l-1 235h61l1 -307 q0 -97 6 -178z" />
<glyph unicode="&#xfb;" horiz-adv-x="531" d="M126 566l105 131h74l105 -131h-63l-79 93l-79 -93h-63zM458 0h-57q-2 23 -2 55q0 26 2 45q-45 -107 -163 -107q-104 0 -144 90q-13 28 -17 58.5t-4 103.5l-1 240h61l1 -240q0 -64 3.5 -90.5t14.5 -49.5q29 -59 95 -59q43 0 78.5 28t52.5 75q10 25 12 81v13l1 7l-1 235h61 l1 -307q0 -97 6 -178z" />
<glyph unicode="&#xfc;" horiz-adv-x="531" d="M316 584v87h70v-87h-70zM145 584v87h70v-87h-70zM458 0h-57q-2 23 -2 55q0 26 2 45q-45 -107 -163 -107q-104 0 -144 90q-13 28 -17 58.5t-4 103.5l-1 240h61l1 -240q0 -64 3.5 -90.5t14.5 -49.5q29 -59 95 -59q43 0 78.5 28t52.5 75q10 25 12 81v13l1 7l-1 235h61 l1 -307q0 -97 6 -178z" />
<glyph unicode="&#xfd;" horiz-adv-x="433" d="M191 566l84 131h87l-117 -131h-54zM44 -146q24 -7 38 -7q35 0 54.5 21t39.5 80l12 35l-175 502h65l116 -340q21 -59 25 -85q2 18 25 86l113 339h62l-186 -544q-28 -80 -48 -104q-35 -43 -96 -43q-19 0 -51 7z" />
<glyph unicode="&#xfe;" horiz-adv-x="537" d="M135 87v-292h-61v925h61v-156v-116q0 -26 -3 -56q24 47 67 74t95 27q90 0 144 -67t54 -179q0 -115 -54 -185t-142 -70q-111 0 -161 95zM134 244q0 -88 42 -144.5t107 -56.5q67 0 105.5 53t38.5 144q0 92 -36.5 146t-99.5 54q-69 0 -113 -55t-44 -141z" />
<glyph unicode="&#xff;" horiz-adv-x="433" d="M273 584v87h70v-87h-70zM102 584v87h70v-87h-70zM44 -146q24 -7 38 -7q35 0 54.5 21t39.5 80l12 35l-175 502h65l116 -340q21 -59 25 -85q2 18 25 86l113 339h62l-186 -544q-28 -80 -48 -104q-35 -43 -96 -43q-19 0 -51 7z" />
<glyph unicode="&#x152;" horiz-adv-x="863" d="M577 0h-49q-4 0 -9.5 -0.5t-17.5 -1t-30 -0.5q-19 -1 -51 -1q-141 0 -230 60q-65 45 -100.5 117.5t-35.5 160.5q0 100 42.5 177t118.5 116q83 43 205 43q53 0 98 -2q86 -2 90 -2h181v-57h-261v-238h249v-57h-249v-258h274v-57h-225zM464 61v542q-37 10 -65 10 q-43 0 -92 -14t-80 -35q-106 -73 -106 -228q0 -128 77 -204.5t205 -76.5q32 0 61 6z" />
<glyph unicode="&#x153;" horiz-adv-x="812" d="M731 76l2 -63q-69 -24 -122 -24q-97 0 -153 60q-23 25 -30 64q-11 -56 -58.5 -90t-114.5 -34q-98 0 -155 66.5t-57 181.5q0 121 57 190t156 69q63 0 111.5 -33t61.5 -84q15 55 59 86t108 31q114 0 155 -118q19 -59 19 -134v-16h-310q-1 -6 -1 -15q0 -60 34 -108 q39 -58 120 -58q59 0 118 29zM461 278h247q-4 56 -16 89q-30 76 -100 76q-55 0 -92 -47t-39 -118zM254 42q68 0 107.5 55t39.5 149q0 88 -40 142.5t-105 54.5q-69 0 -109.5 -54.5t-40.5 -148.5q0 -90 40.5 -144t107.5 -54z" />
<glyph unicode="&#x178;" horiz-adv-x="588" d="M355 746v89h75v-89h-75zM165 746v89h75v-89h-75zM264 0v281l-253 386h77l164 -256l29 -45q9 -14 16 -30q5 10 17 32l18 27l11 18l162 254h73l-250 -384v-283h-64z" />
<glyph unicode="&#x2c6;" horiz-adv-x="500" d="M108 566l105 131h74l105 -131h-63l-79 93l-79 -93h-63z" />
<glyph unicode="&#x2dc;" horiz-adv-x="500" d="M115 587q1 41 21 63.5t55 22.5q24 0 51 -11l31 -13q24 -10 39 -10t22.5 7.5t12.5 27.5h38q-8 -86 -73 -86q-23 0 -51 11l-35 13q-27 9 -38 9q-26 0 -35 -34h-38z" />
<glyph unicode="&#x2000;" horiz-adv-x="443" />
<glyph unicode="&#x2001;" horiz-adv-x="887" />
<glyph unicode="&#x2002;" horiz-adv-x="443" />
<glyph unicode="&#x2003;" horiz-adv-x="887" />
<glyph unicode="&#x2004;" horiz-adv-x="295" />
<glyph unicode="&#x2005;" horiz-adv-x="221" />
<glyph unicode="&#x2006;" horiz-adv-x="147" />
<glyph unicode="&#x2007;" horiz-adv-x="147" />
<glyph unicode="&#x2008;" horiz-adv-x="110" />
<glyph unicode="&#x2009;" horiz-adv-x="177" />
<glyph unicode="&#x200a;" horiz-adv-x="49" />
<glyph unicode="&#x2010;" horiz-adv-x="220" d="M0 222v51h220v-51h-220z" />
<glyph unicode="&#x2011;" horiz-adv-x="220" d="M0 222v51h220v-51h-220z" />
<glyph unicode="&#x2012;" horiz-adv-x="220" d="M0 222v51h220v-51h-220z" />
<glyph unicode="&#x2013;" d="M48 222v51h440v-51h-440z" />
<glyph unicode="&#x2014;" horiz-adv-x="661" d="M0 222v51h661v-51h-661z" />
<glyph unicode="&#x2018;" horiz-adv-x="267" d="M73 510l72 210h61l-55 -210h-78z" />
<glyph unicode="&#x2019;" horiz-adv-x="267" d="M60 510l56 210h78l-73 -210h-61z" />
<glyph unicode="&#x201a;" horiz-adv-x="267" d="M60 -128l56 210h78l-73 -210h-61z" />
<glyph unicode="&#x201c;" horiz-adv-x="434" d="M241 510l72 210h61l-55 -210h-78zM73 510l72 210h61l-55 -210h-78z" />
<glyph unicode="&#x201d;" horiz-adv-x="434" d="M228 510l55 210h78l-72 -210h-61zM60 510l55 210h78l-72 -210h-61z" />
<glyph unicode="&#x201e;" horiz-adv-x="434" d="M241 -129l55 211h78l-72 -211h-61zM73 -129l55 211h78l-72 -211h-61z" />
<glyph unicode="&#x2022;" horiz-adv-x="667" d="M335 200q-58 0 -98.5 40.5t-40.5 97.5q0 58 40.5 98.5t99.5 40.5q56 0 96.5 -41t40.5 -98t-40.5 -97.5t-97.5 -40.5z" />
<glyph unicode="&#x2026;" horiz-adv-x="804" d="M631 0v82h79v-82h-79zM363 0v82h79v-82h-79zM95 0v82h79v-82h-79z" />
<glyph unicode="&#x202f;" horiz-adv-x="177" />
<glyph unicode="&#x2039;" horiz-adv-x="369" d="M226 50l-133 197l134 196h56l-127 -196l127 -197h-57z" />
<glyph unicode="&#x203a;" horiz-adv-x="369" d="M86 50l127 197l-127 196h57l133 -196l-133 -197h-57z" />
<glyph unicode="&#x205f;" horiz-adv-x="221" />
<glyph unicode="&#x20ac;" horiz-adv-x="636" d="M479 269h-295q10 -64 32 -105q28 -56 79 -87t113 -31q96 0 160 69v-83q-68 -43 -160 -43q-117 0 -195.5 75.5t-96.5 204.5h-68l16 51h48v32h-64l16 51h53q22 131 96.5 203t188.5 72q108 0 186 -61l-20 -67q-59 71 -159 71q-72 0 -125.5 -38.5t-80.5 -109.5 q-11 -30 -18 -70h336l-16 -51h-326v-18v-14h316z" />
<glyph unicode="&#x2122;" horiz-adv-x="811" d="M342 287v382h66l105 -234q29 -66 38 -94q11 31 42 100l104 228h67v-382h-48v237q0 48 1 89q-11 -28 -37 -86l-110 -240h-40l-108 240q-13 28 -35 81q2 -56 2 -64q1 -12 1 -26v-231h-48zM124 287v339h-120v41h287v-41h-119v-339h-48z" />
</font>
</defs>
</svg>
