<?xml version="1.0" standalone="no"?>
<!DOCTYPE svg PUBLIC "-//W3C//DTD SVG 1.1//EN" "http://www.w3.org/Graphics/SVG/1.1/DTD/svg11.dtd" >
<svg xmlns="http://www.w3.org/2000/svg">
<metadata></metadata>
<defs>
<font id="graphein_pro_bookitalic" horiz-adv-x="560" >
<font-face units-per-em="1000" ascent="758" descent="-242" />
<missing-glyph horiz-adv-x="250" />
<glyph unicode="&#xfb01;" horiz-adv-x="575" d="M54 0l89 419h-117l15 70h117l13 58q12 54 28 84.5t44 53.5q51 40 118 40q28 0 68 -11l-15 -74q-27 8 -44 8q-60 0 -90 -53q-14 -27 -31 -106h133l-15 -70h-134l-89 -419h-90zM478 567l21 100h101l-21 -100h-101zM363 0l104 489h90l-104 -489h-90z" />
<glyph unicode="&#xfb02;" horiz-adv-x="575" d="M54 0l89 419h-117l15 70h117l13 58q12 54 28 84.5t44 53.5q51 40 118 40q28 0 68 -11l-15 -74q-27 8 -44 8q-60 0 -90 -53q-14 -27 -31 -106h133l-15 -70h-134l-89 -419h-90zM363 0l153 720h90l-153 -720h-90z" />
<glyph unicode="&#xfb03;" horiz-adv-x="884" d="M54 0l89 419h-117l15 70h117l13 58q12 54 28 84.5t44 53.5q51 40 118 40q28 0 68 -11l-15 -74q-27 8 -44 8q-60 0 -90 -53q-14 -27 -31 -106h218l12 58q11 53 27.5 84t45.5 54q49 40 118 40q27 0 68 -11l-16 -74q-25 8 -43 8q-60 0 -90 -53q-15 -27 -31 -106h132l-15 -70 h-133l-89 -419h-90l89 419h-219l-89 -419h-90zM787 567l21 100h101l-22 -100h-100zM671 0l104 489h90l-104 -489h-90z" />
<glyph unicode="&#xfb04;" horiz-adv-x="884" d="M54 0l89 419h-117l15 70h117l13 58q12 54 28 84.5t44 53.5q51 40 118 40q28 0 68 -11l-15 -74q-27 8 -44 8q-60 0 -90 -53q-14 -27 -31 -106h218l12 58q11 53 27.5 84t45.5 54q49 40 118 40q27 0 68 -11l-16 -74q-25 8 -43 8q-60 0 -90 -53q-15 -27 -31 -106h132l-15 -70 h-133l-89 -419h-90l89 419h-219l-89 -419h-90zM671 0l154 720h90l-154 -720h-90z" />
<glyph horiz-adv-x="0" />
<glyph horiz-adv-x="333" />
<glyph unicode=" "  horiz-adv-x="250" />
<glyph unicode="&#x09;" horiz-adv-x="250" />
<glyph unicode="&#xa0;" horiz-adv-x="250" />
<glyph unicode="!" horiz-adv-x="319" d="M100 185l95 482h106l-115 -482h-86zM53 0l22 103h106l-22 -103h-106z" />
<glyph unicode="&#x22;" horiz-adv-x="346" d="M252 453l42 267h99l-72 -267h-69zM111 453l41 267h100l-72 -267h-69z" />
<glyph unicode="#" d="M87 0l43 202h-89l14 64h86l31 147h-86l14 64h89l40 190h75l-40 -187h129l40 187h75l-41 -190h88l-14 -64h-87l-31 -147h89l-14 -64h-89l-43 -202h-75l43 202h-129l-43 -202h-75zM219 266h129l31 147h-129z" />
<glyph unicode="$" d="M25 35l30 84q70 -38 148 -44l52 240q-57 30 -84 51q-59 44 -59 122q0 109 98 155q48 22 129 26l19 88h53l-19 -90q72 -6 143 -35l-24 -82q-57 37 -134 44l-45 -212l12 -7q62 -36 78.5 -48t30.5 -29q33 -42 33 -100q0 -59 -30.5 -105.5t-86.5 -71.5q-50 -24 -130 -25 l-19 -85h-54l19 85q-77 4 -160 39zM284 407l40 188q-53 -3 -83.5 -29t-30.5 -68q0 -31 17.5 -52t56.5 -39zM257 74q58 2 94 33t36 78q0 35 -17.5 56.5t-67.5 48.5z" />
<glyph unicode="%" horiz-adv-x="697" d="M70 -39l525 744h63l-526 -744h-62zM197 367q-62 0 -95.5 32.5t-33.5 93.5q0 35 12 73t30 61q43 51 115 51q58 0 90 -32t32 -90q0 -85 -44 -140q-40 -49 -106 -49zM196 418q39 0 60 43q21 42 21 98q0 70 -54 70q-41 0 -65 -49q-20 -42 -20 -93q0 -69 58 -69zM383 115 q0 35 12 73t31 61q42 51 114 51q58 0 90.5 -32t32.5 -89q0 -86 -45 -141q-38 -49 -106 -49q-62 0 -95.5 32.5t-33.5 93.5zM453 109q0 -69 59 -69q38 0 60 43q21 42 21 98q0 70 -55 70q-40 0 -64 -49q-21 -44 -21 -93z" />
<glyph unicode="&#x26;" horiz-adv-x="685" d="M54 176q0 98 79 152q34 23 111 48q-51 77 -51 138q0 70 54 115t138 45q80 0 127.5 -39.5t47.5 -105.5q0 -65 -45 -110t-141 -76l108 -157q57 69 75 175h84q-11 -77 -41.5 -143t-72.5 -102l75 -116h-106l-35 54q-76 -63 -191 -63q-99 0 -157.5 50t-58.5 135zM329 402l13 3 q62 18 97 50t35 71q0 33 -26 54.5t-66 21.5q-43 0 -72 -26.5t-29 -64.5q0 -57 48 -109zM151 183q0 -51 36 -83.5t93 -32.5q38 0 69 12t69 42l-131 193q-54 -17 -84 -36q-52 -32 -52 -95z" />
<glyph unicode="'" horiz-adv-x="205" d="M111 453l41 267h100l-72 -267h-69z" />
<glyph unicode="(" horiz-adv-x="333" d="M74 186q0 183 106 352q46 75 147 182h93q-137 -152 -195 -281.5t-58 -284.5q0 -158 57 -357h-83q-67 217 -67 389z" />
<glyph unicode=")" horiz-adv-x="333" d="M163 -21q-44 -70 -146 -182h-94q136 150 194.5 281t58.5 285t-57 357h83q67 -223 67 -388q0 -183 -106 -353z" />
<glyph unicode="*" d="M226 374l-58 62l127 91l-142 66l43 73l127 -93l15 156l85 -18l-46 -147l150 29l8 -84h-155l78 -135l-78 -33l-49 146z" />
<glyph unicode="+" d="M262 117v187h-193v73h193v186h73v-186h194v-73h-194v-187h-73z" />
<glyph unicode="," horiz-adv-x="309" d="M-27 -128l111 236h115l-135 -236h-91z" />
<glyph unicode="-" horiz-adv-x="251" d="M-7 219l16 75h251l-16 -75h-251z" />
<glyph unicode="." horiz-adv-x="249" d="M17 0l23 107h108l-22 -107h-109z" />
<glyph unicode="/" horiz-adv-x="377" d="M-65 -203h-82l538 923h82z" />
<glyph unicode="0" d="M56 213q0 70 23.5 162.5t56.5 152.5q82 148 222 148q88 0 134.5 -53.5t46.5 -154.5q0 -108 -31 -210.5t-86 -176.5q-68 -90 -180 -90q-186 0 -186 222zM153 198q0 -131 93 -131q79 0 138 125q26 56 42 134t16 146q0 66 -21.5 96.5t-68.5 30.5q-82 0 -142 -135 q-23 -54 -40 -131.5t-17 -134.5z" />
<glyph unicode="1" d="M193 0l108 510q8 35 16 54q-19 -19 -49 -39l-76 -51l-43 71l199 122h83l-142 -667h-96z" />
<glyph unicode="2" d="M0 0l21 97q119 87 242 196q151 135 151 218q0 40 -29.5 62.5t-80.5 22.5q-79 0 -164 -41l10 88q86 33 170 33q89 0 140.5 -40.5t51.5 -110.5q0 -114 -142 -252q-124 -118 -241 -193h312l-17 -80h-424z" />
<glyph unicode="3" d="M8 24l23 82q71 -38 153 -38q77 0 128 39t51 98q0 104 -170 104q-16 0 -28 -1l17 80q9 -1 20 -1q101 0 158.5 34t57.5 94q0 40 -28.5 62t-81.5 22q-72 0 -161 -33l11 89q91 21 158 21q94 0 146.5 -39.5t52.5 -109.5q0 -86 -72 -142q-37 -27 -99 -38q49 -14 71 -33 q43 -37 43 -107q0 -94 -77 -158q-71 -58 -195 -58q-93 0 -178 33z" />
<glyph unicode="4" d="M14 146l17 80l367 441h137l-94 -441h84l-17 -80h-84l-31 -146h-97l31 146h-313zM136 226h208l74 310q10 42 26 84q-29 -51 -77 -110z" />
<glyph unicode="5" d="M36 14l18 81q81 -27 134 -27q84 0 137 46.5t53 119.5q0 51 -39 80.5t-106 29.5q-59 0 -124 -18l80 341h358l-17 -80h-270l-42 -171q26 5 52 5q96 0 150 -47t54 -131q0 -52 -21.5 -102t-58.5 -84q-72 -66 -202 -66q-84 0 -156 23z" />
<glyph unicode="6" d="M67 200q0 156 76 303q90 173 282 173q65 0 143 -24l-28 -77q-53 24 -108 24q-121 0 -196 -115q-23 -34 -55 -122q64 70 154 70q79 0 125 -47t46 -129q0 -58 -20 -112t-54 -90q-61 -63 -169 -63q-94 0 -145 54t-51 155zM164 180q0 -52 27.5 -82t74.5 -30q58 0 101 55 t43 128q0 47 -28 75.5t-74 28.5q-60 0 -102 -51t-42 -124z" />
<glyph unicode="7" d="M73 0l378 587h-326l17 80h427l-20 -88l-363 -579h-113z" />
<glyph unicode="8" d="M39 165q0 77 48.5 128.5t131.5 61.5q-94 59 -94 147q0 79 59.5 126.5t157.5 47.5q95 0 149.5 -40t54.5 -110q0 -59 -41.5 -104.5t-116.5 -69.5q103 -46 103 -153q0 -83 -58 -143q-65 -65 -180 -65q-97 0 -155.5 47.5t-58.5 126.5zM319 385q71 34 100.5 63.5t29.5 67.5 q0 37 -30 60t-78 23q-53 0 -87.5 -27t-34.5 -68q0 -65 100 -119zM137 173q0 -47 33.5 -76t88.5 -29q57 0 97 37.5t40 90.5q0 36 -19 58.5t-71 49.5l-23 12l-24 -8q-59 -20 -90.5 -55t-31.5 -80z" />
<glyph unicode="9" d="M21 18l28 81q68 -31 121 -31q121 0 191 121q15 27 52 128q-35 -40 -67.5 -56t-78.5 -16q-82 0 -130.5 48t-48.5 130q0 110 70 181.5t178 71.5q185 0 185 -200q0 -83 -25 -176.5t-67 -166.5q-80 -142 -256 -142q-79 0 -152 27zM279 322q60 0 102.5 49t42.5 119 q0 48 -26.5 78.5t-67.5 30.5q-58 0 -101.5 -51t-43.5 -118q0 -50 25 -79t69 -29z" />
<glyph unicode=":" horiz-adv-x="249" d="M99 382l23 107h108l-23 -107h-108zM18 0l23 107h108l-23 -107h-108z" />
<glyph unicode=";" horiz-adv-x="309" d="M136 382l23 107h108l-23 -107h-108zM-27 -129l111 235h114l-134 -235h-91z" />
<glyph unicode="&#x3c;" horiz-adv-x="500" d="M51 299v77l433 209v-90l-337 -157l337 -158v-89z" />
<glyph unicode="=" d="M69 374v73h460v-73h-460zM69 234v73h460v-73h-460z" />
<glyph unicode="&#x3e;" horiz-adv-x="500" d="M51 91v89l337 158l-337 157v89l433 -208v-77z" />
<glyph unicode="?" horiz-adv-x="455" d="M148 186l10 51q10 48 29.5 77t67.5 67q70 55 84 72q23 30 23 62q0 39 -28.5 60t-82.5 21q-67 0 -143 -33l11 91q91 23 148 23q92 0 142.5 -39.5t50.5 -110.5q0 -67 -51 -124q-17 -20 -31 -32t-79 -65q-30 -25 -42.5 -49t-19.5 -71h-89zM108 0l22 103h101l-22 -103h-101z " />
<glyph unicode="@" horiz-adv-x="763" d="M168 -6q-48 47 -75 113t-27 136q0 147 101.5 248t248.5 101q136 0 226.5 -84.5t90.5 -212.5q0 -93 -50 -164t-115 -71q-29 0 -49 17t-25 46q-44 -69 -125 -69q-61 0 -100.5 45.5t-39.5 114.5q0 83 51.5 143t123.5 60q77 0 106 -68l11 56h64l-40 -205q-6 -30 -6 -47 t9 -28.5t23 -11.5q40 0 72.5 56t32.5 125q0 105 -72.5 172.5t-184.5 67.5q-122 0 -206 -84.5t-84 -208.5q0 -119 79 -203q78 -81 212 -81q112 0 205 42l16 -58q-97 -42 -218 -42q-157 0 -255 95zM301 216q0 -43 23.5 -70.5t60.5 -27.5q43 0 74 41t31 99q0 41 -21.5 66 t-57.5 25q-44 0 -77 -39.5t-33 -93.5z" />
<glyph unicode="A" horiz-adv-x="687" d="M-45 0l428 667h101l146 -667h-97l-36 167h-328l-106 -167h-108zM216 244h264l-45 233q-13 69 -15 112q-17 -42 -54 -103z" />
<glyph unicode="B" horiz-adv-x="566" d="M27 0l142 667h138q114 0 167 -27q33 -17 52.5 -51.5t19.5 -75.5q0 -64 -38.5 -108.5t-105.5 -58.5q112 -28 112 -134q0 -48 -23 -93t-62 -73q-66 -46 -210 -46h-192zM205 382h69q82 0 120 22q27 15 43 42.5t16 57.5q0 86 -132 86h-72zM140 77h74q96 0 141 23 q30 16 48 45.5t18 63.5q0 57 -43 81q-33 19 -123 19h-66z" />
<glyph unicode="C" horiz-adv-x="594" d="M63 286q0 89 36.5 169.5t101.5 133.5q105 87 265 87q94 0 163 -31l-27 -82q-64 30 -139 30q-128 0 -213.5 -85.5t-85.5 -212.5q0 -101 60.5 -161t162.5 -60q71 0 132 25l-12 -90q-60 -18 -132 -18q-140 0 -226 81.5t-86 213.5z" />
<glyph unicode="D" horiz-adv-x="673" d="M27 0l142 667h104q99 0 160 -12.5t109 -43.5q110 -69 110 -230q0 -98 -39.5 -182t-107.5 -130q-57 -39 -134.5 -54t-218.5 -15h-125zM141 82h61q150 0 225 45q58 35 91.5 102t33.5 147q0 110 -63.5 159.5t-202.5 49.5h-38z" />
<glyph unicode="E" horiz-adv-x="507" d="M27 0l142 667h364l-17 -82h-268l-42 -200h250l-17 -82h-251l-47 -221h280l-17 -82h-377z" />
<glyph unicode="F" horiz-adv-x="479" d="M27 0l142 667h352l-18 -82h-255l-43 -203h239l-18 -82h-238l-64 -300h-97z" />
<glyph unicode="G" horiz-adv-x="669" d="M62 289q0 84 34 163t92 131q107 93 273 93q115 0 206 -39l-27 -83q-91 39 -176 39q-129 0 -210 -75q-42 -39 -67 -99.5t-25 -124.5q0 -100 62 -160t166 -60q44 0 84 13l43 200h-140l17 82h237l-76 -355q-69 -23 -159 -23q-158 0 -246 78t-88 220z" />
<glyph unicode="H" horiz-adv-x="673" d="M27 0l142 667h96l-59 -280h319l60 280h97l-142 -667h-97l65 305h-320l-64 -305h-97z" />
<glyph unicode="I" horiz-adv-x="250" d="M23 0l142 667h96l-141 -667h-97z" />
<glyph unicode="J" horiz-adv-x="350" d="M-45 8l17 84q43 -18 74 -18q56 0 82 31q21 25 41 117l95 445h97l-103 -485q-24 -108 -67 -146q-52 -45 -138 -45q-48 0 -98 17z" />
<glyph unicode="K" horiz-adv-x="605" d="M27 0l142 667h96l-62 -294l318 294h127l-358 -327l269 -340h-121l-246 320l-68 -320h-97z" />
<glyph unicode="L" horiz-adv-x="449" d="M27 0l142 667h96l-124 -585h280l-18 -82h-376z" />
<glyph unicode="M" horiz-adv-x="881" d="M27 0l142 667h160l65 -417q14 -96 13 -133l-1 -33q9 41 64 134l265 449h154l-141 -667h-90l93 438q21 99 47 182h-4q-30 -72 -89 -169l-270 -451h-93l-53 312q-39 231 -42 310h-4q-8 -66 -49 -259l-77 -363h-90z" />
<glyph unicode="N" horiz-adv-x="681" d="M27 0l142 667h125l121 -355q65 -193 68 -256q6 90 35 225l82 386h90l-142 -667h-125l-128 377q-50 146 -60 226q-3 -58 -19 -135l-99 -468h-90z" />
<glyph unicode="O" horiz-adv-x="723" d="M60 276q0 80 32 161.5t86 136.5q97 102 253 102q126 0 196 -72.5t70 -203.5q0 -81 -29.5 -160.5t-81.5 -140.5q-93 -108 -254 -108q-131 0 -201.5 74t-70.5 211zM160 270q0 -93 48 -144.5t135 -51.5q115 0 182 98q72 104 72 233q0 84 -47 136t-123 52q-116 0 -194 -105 q-33 -44 -53 -104t-20 -114z" />
<glyph unicode="P" horiz-adv-x="539" d="M27 0l142 667h129q119 0 180 -37q72 -44 72 -138q0 -50 -22.5 -96t-60.5 -74q-72 -55 -216 -55h-70l-57 -267h-97zM198 349h54q103 0 147 33q51 38 51 104q0 99 -151 99h-51z" />
<glyph unicode="Q" horiz-adv-x="723" d="M60 270q0 85 31.5 166.5t86.5 137.5q102 102 253 102q126 0 196 -72.5t70 -203.5q0 -133 -69.5 -244t-174.5 -147l118 -132h-117l-96 115q-11 -1 -28 -1q-127 0 -198.5 74t-71.5 205zM160 270q0 -93 48 -144.5t135 -51.5q115 0 182 98q72 104 72 233q0 84 -47 136 t-123 52q-116 0 -194 -105q-33 -44 -53 -104t-20 -114z" />
<glyph unicode="R" horiz-adv-x="582" d="M27 0l142 667h121q81 0 120 -6t70 -22q71 -38 71 -129q0 -72 -48 -124.5t-123 -61.5q28 -10 38 -24t21 -54l63 -246h-98l-52 221q-11 49 -30.5 61.5t-81.5 12.5h-54l-62 -295h-97zM204 377h56q85 0 129 22q28 13 44.5 40t16.5 57q0 51 -38 72q-31 17 -115 17h-49z" />
<glyph unicode="S" horiz-adv-x="508" d="M22 31l30 83q81 -40 144 -40t104 34.5t41 87.5q0 48 -43 81q-10 8 -84 52q-55 34 -80 70t-25 83q0 85 63 139.5t161 54.5q85 0 158 -34l-24 -83q-62 34 -130 34q-57 0 -92.5 -27.5t-35.5 -73.5q0 -32 19 -53.5t78 -55.5q77 -44 106 -82.5t29 -97.5q0 -95 -65 -153.5 t-171 -58.5q-100 0 -183 40z" />
<glyph unicode="T" horiz-adv-x="525" d="M162 0l124 585h-208l17 82h512l-18 -82h-206l-125 -585h-96z" />
<glyph unicode="U" horiz-adv-x="671" d="M72 188q0 57 15 126l75 353h97l-78 -363q-13 -57 -13 -96q0 -60 39 -97t102 -37q42 0 79.5 18t60.5 49q39 51 64 168l77 358h96l-80 -376q-20 -95 -45.5 -148.5t-65.5 -87.5q-73 -64 -190 -64q-104 0 -168.5 54.5t-64.5 142.5z" />
<glyph unicode="V" horiz-adv-x="627" d="M201 0l-109 667h96l59 -384q24 -158 24 -216q28 75 91 182l246 418h104l-397 -667h-114z" />
<glyph unicode="W" horiz-adv-x="957" d="M154 0l-56 667h94l25 -344l9 -130q2 -38 2 -134q8 47 74 188l197 420h129l14 -357q4 -104 4 -164q0 -43 -4 -87q16 62 94 218l197 390h102l-345 -667h-124l-17 457q-1 18 -1 69q0 43 3 88q-24 -80 -74 -188l-197 -426h-126z" />
<glyph unicode="X" horiz-adv-x="630" d="M-50 0l321 358l-159 309h103l130 -252l221 252h120l-288 -320l175 -347h-106l-141 289l-253 -289h-123z" />
<glyph unicode="Y" horiz-adv-x="622" d="M207 0l60 280l-179 387h106l132 -299l263 299h121l-347 -387l-59 -280h-97z" />
<glyph unicode="Z" horiz-adv-x="558" d="M-7 0l17 81l449 504h-338l17 82h447l-18 -83l-440 -502h348l-17 -82h-465z" />
<glyph unicode="[" horiz-adv-x="333" d="M125 -140h96l-14 -63h-183l196 923h184l-14 -63h-95z" />
<glyph unicode="\" horiz-adv-x="371" d="M248 -203l-145 923h76l145 -923h-76z" />
<glyph unicode="]" horiz-adv-x="333" d="M42 -140l169 797h-95l13 63h184l-197 -923h-183l13 63h96z" />
<glyph unicode="^" horiz-adv-x="500" d="M37 356l172 313h118l172 -313h-96l-135 242l-135 -242h-96z" />
<glyph unicode="_" horiz-adv-x="500" d="M18 -59h500v-82h-500v82z" />
<glyph unicode="`" horiz-adv-x="500" d="M326 567l-113 137h94l79 -137h-60z" />
<glyph unicode="a" horiz-adv-x="506" d="M12 131q0 43 21.5 79t57.5 54q73 37 203 37q38 0 73 -5q3 30 3 39q0 43 -29 67.5t-79 24.5q-73 0 -152 -38l18 83q79 25 139 25q87 0 138 -40.5t51 -110.5q0 -28 -4 -54t-30 -154q-3 -10 -24 -138h-82q6 56 14 85q-59 -93 -164 -93q-69 0 -111.5 38.5t-42.5 100.5z M107 136q0 -33 23.5 -53.5t60.5 -20.5q63 0 107 50q32 39 51 121q-32 2 -43 2q-95 0 -147 -26t-52 -73z" />
<glyph unicode="b" horiz-adv-x="580" d="M15 0l155 720h89l-64 -302q37 44 72.5 61.5t88.5 17.5q86 0 135.5 -52t49.5 -143q0 -62 -20.5 -123.5t-55.5 -106.5q-63 -80 -172 -80q-73 0 -117 28q-36 22 -50 75l-20 -95h-91zM155 209q0 -68 33.5 -107.5t90.5 -39.5q73 0 118 71q48 77 48 169q0 59 -29 92t-81 33 q-71 0 -125.5 -65.5t-54.5 -152.5z" />
<glyph unicode="c" horiz-adv-x="442" d="M39 205q0 130 77 211t199 81q60 0 123 -22l-21 -69q-54 21 -96 21q-81 0 -133.5 -62t-52.5 -158q0 -70 35 -107.5t100 -37.5q43 0 103 22l-18 -78q-59 -14 -104 -14q-100 0 -156 56.5t-56 156.5z" />
<glyph unicode="d" horiz-adv-x="580" d="M38 198q0 116 68 208q68 91 182 91q80 0 126 -40q27 -22 35 -66q4 41 18 108l47 221h90l-119 -560q-14 -67 -27 -160h-84q6 48 14 77q-29 -45 -66 -65t-93 -20q-88 0 -139.5 55.5t-51.5 150.5zM135 208q0 -70 30 -108t84 -38q72 0 121.5 65t49.5 160q0 65 -31.5 102.5 t-86.5 37.5q-70 0 -114 -57q-53 -70 -53 -162z" />
<glyph unicode="e" horiz-adv-x="513" d="M37 200q0 61 21.5 121.5t58.5 101.5q66 74 180 74q89 0 138.5 -48.5t49.5 -134.5q0 -35 -11 -91h-344q-4 -32 -4 -44q0 -56 39 -86.5t111 -30.5q60 0 142 29l-17 -78q-75 -21 -137 -21q-111 0 -169 53.5t-58 154.5zM143 293h251q3 21 3 38q0 44 -27 70t-74 26 q-69 0 -113 -52q-25 -29 -40 -82z" />
<glyph unicode="f" horiz-adv-x="347" d="M54 0l89 419h-117l15 70h117l13 58q12 54 28 84.5t44 53.5q51 40 118 40q28 0 68 -11l-15 -74q-27 8 -44 8q-60 0 -90 -53q-14 -27 -31 -106h133l-15 -70h-134l-89 -419h-90z" />
<glyph unicode="g" horiz-adv-x="571" d="M29 -98q91 -42 162 -42q113 0 154 97q11 25 33 118q-30 -41 -65 -58.5t-84 -17.5q-89 0 -139.5 54.5t-50.5 150.5q0 119 71 209q66 84 180 84q131 0 159 -98q5 37 18 90h86l-101 -475q-15 -71 -36.5 -111t-59.5 -67q-67 -46 -167 -46q-77 0 -177 36zM136 212 q0 -68 30 -105.5t84 -37.5q71 0 120 65t49 159q0 61 -32 97.5t-85 36.5q-68 0 -117 -63.5t-49 -151.5z" />
<glyph unicode="h" horiz-adv-x="564" d="M15 0l153 720h90l-63 -297q33 41 67.5 57.5t84.5 16.5q77 0 122 -39t45 -105q0 -47 -15 -114l-51 -239h-90l58 271q9 45 9 66q0 39 -25.5 63t-67.5 24q-64 0 -111.5 -51.5t-66.5 -142.5l-49 -230h-90z" />
<glyph unicode="i" horiz-adv-x="227" d="M130 567l21 100h101l-21 -100h-101zM15 0l104 489h90l-104 -489h-90z" />
<glyph unicode="j" horiz-adv-x="242" d="M141 567l21 100h102l-21 -100h-102zM20 -37l111 526h90l-113 -530q-19 -94 -45 -125q-17 -20 -47.5 -32t-63.5 -12q-32 0 -73 14l16 72q24 -10 43 -10q35 0 52.5 21t29.5 76z" />
<glyph unicode="k" horiz-adv-x="508" d="M15 0l153 720h90l-89 -421l231 190h130l-276 -220l200 -269h-115l-180 252l-54 -252h-90z" />
<glyph unicode="l" horiz-adv-x="227" d="M15 0l153 720h90l-153 -720h-90z" />
<glyph unicode="m" horiz-adv-x="828" d="M15 0l104 489h81q-10 -54 -19 -81q61 89 160 89t133 -89q64 89 165 89q66 0 105.5 -34t39.5 -92q0 -33 -12 -90l-60 -281h-89l60 285q10 50 10 64q0 35 -20.5 55t-56.5 20q-56 0 -96 -47.5t-58 -134.5l-51 -242h-90l59 283q11 55 11 71q0 31 -21.5 50.5t-55.5 19.5 q-57 0 -99 -52.5t-63 -150.5l-47 -221h-90z" />
<glyph unicode="n" horiz-adv-x="571" d="M21 0l74 348q8 38 24 141h87l-7 -33l-6 -34q-3 -13 -7 -25q33 53 74.5 76.5t99.5 23.5q72 0 115.5 -41t43.5 -109q0 -52 -16 -126l-47 -221h-90l48 227q15 73 15 113q0 38 -25 61t-66 23q-70 0 -117 -57q-43 -52 -66 -160l-44 -207h-90z" />
<glyph unicode="o" horiz-adv-x="569" d="M39 214q0 57 23 114.5t61 95.5q73 73 192 73q101 0 158.5 -58t57.5 -160q0 -66 -26 -127t-70 -98q-72 -62 -178 -62q-101 0 -159.5 59.5t-58.5 162.5zM136 209q0 -68 33 -107.5t90 -39.5q71 0 122.5 65.5t51.5 155.5q0 67 -33 105.5t-89 38.5q-73 0 -124 -64t-51 -154z " />
<glyph unicode="p" horiz-adv-x="576" d="M115 24l-48 -227h-90l110 519q23 106 32 173h85q-3 -27 -16 -76q34 45 73 64.5t93 19.5q85 0 134 -52.5t49 -142.5q0 -63 -20.5 -124.5t-56.5 -106.5q-64 -79 -177 -79q-83 0 -126 43q-19 19 -32 55q-3 -35 -10 -66zM156 200q0 -65 31.5 -101.5t87.5 -36.5q74 0 118 70 q48 78 48 170q0 59 -28 92t-78 33q-73 0 -126 -67.5t-53 -159.5z" />
<glyph unicode="q" horiz-adv-x="577" d="M38 194q0 115 63 206q68 97 191 97q84 0 126 -45q18 -18 32 -53l19 90h90l-147 -692h-90l55 259q-39 -38 -69.5 -51t-78.5 -13q-86 0 -138.5 55.5t-52.5 146.5zM135 206q0 -69 30 -106.5t85 -37.5q70 0 117 61q53 72 53 166q0 63 -32 100.5t-86 37.5q-70 0 -118.5 -64.5 t-48.5 -156.5z" />
<glyph unicode="r" horiz-adv-x="359" d="M19 0l74 347q13 57 24 142h84q-6 -54 -17 -93q25 42 46 62q44 39 109 39q29 0 56 -11l-16 -74q-31 12 -52 12q-129 0 -173 -210l-45 -214h-90z" />
<glyph unicode="s" horiz-adv-x="382" d="M-2 15l16 75q60 -28 115 -28q44 0 71.5 20.5t27.5 54.5q0 33 -31 61q-7 6 -74 53q-63 45 -63 109q0 61 50 99t130 38q70 0 133 -26l-25 -69q-57 25 -104 25q-39 0 -62.5 -17t-23.5 -46q0 -19 10.5 -31.5t41.5 -32.5q51 -34 82 -65q33 -32 33 -81q0 -71 -55 -116.5 t-141 -45.5q-62 0 -131 23z" />
<glyph unicode="t" horiz-adv-x="355" d="M74 100q0 29 8 66l54 253h-110l15 70h110l24 114l97 35l-31 -149h133l-15 -70h-133l-53 -249q-6 -28 -6 -51q0 -25 18.5 -39.5t49.5 -14.5q27 0 58 15l-16 -73q-39 -15 -77 -15q-61 0 -93.5 28t-32.5 80z" />
<glyph unicode="u" horiz-adv-x="562" d="M44 129q0 36 11 88l58 272h90l-61 -287q-6 -26 -6 -50q0 -39 25 -63t66 -24q57 0 103 48q49 53 74 169l44 207h90l-70 -332q-18 -84 -28 -157h-80l4 36q3 22 10 55q-29 -43 -54 -62q-50 -37 -118 -37q-70 0 -114 38t-44 99z" />
<glyph unicode="v" horiz-adv-x="459" d="M122 0l-78 489h92l41 -283q11 -72 11 -115v-24q12 39 42 95l177 327h96l-274 -489h-107z" />
<glyph unicode="w" horiz-adv-x="792" d="M112 0l-55 489h90l26 -290q6 -65 6 -100l-2 -36l13 32q53 128 202 394h108l26 -270q7 -76 7 -120q0 -20 -1 -36q20 68 70 165l136 261h98l-265 -489h-101l-32 285q-7 63 -7 103q0 1 2 41q-14 -55 -61 -141l-156 -288h-104z" />
<glyph unicode="x" horiz-adv-x="468" d="M-50 0l226 257l-104 232h97l76 -176l146 176h110l-208 -234l119 -255h-101l-84 193l-163 -193h-114z" />
<glyph unicode="y" horiz-adv-x="467" d="M110 -53l20 35l-80 507h93l45 -321q8 -53 8 -75v-15q11 31 36 78l181 333h97l-318 -563q-44 -77 -83 -105.5t-103 -28.5q-30 0 -63 9l16 75q21 -7 43 -7q36 0 59 17t49 61z" />
<glyph unicode="z" horiz-adv-x="478" d="M-13 0l16 72l353 347h-277l15 70h386l-15 -71l-355 -348h290l-15 -70h-398z" />
<glyph unicode="{" horiz-adv-x="493" d="M128 -57l40 190q5 27 5 41q0 42 -41 52l14 65q32 8 49 29t26 63l42 198q16 76 61 107.5t133 31.5h16l-13 -64q-58 0 -79.5 -16t-32.5 -66l-42 -197q-10 -49 -28.5 -75t-54.5 -43q38 -27 38 -72q0 -21 -6 -49l-41 -193q-6 -27 -6 -42q0 -23 18.5 -32.5t64.5 -8.5l-14 -65 h-16h-28q-112 0 -112 90q0 21 7 56z" />
<glyph unicode="|" horiz-adv-x="500" d="M223 -167v834h90v-834h-90z" />
<glyph unicode="}" horiz-adv-x="493" d="M37 -138q58 0 79.5 15.5t32.5 66.5l42 196q10 50 28.5 75.5t54.5 43.5q-38 26 -38 71q0 20 6 50l40 192q7 32 7 42q0 23 -18.5 32.5t-64.5 9.5l13 64h17h27q55 0 84 -23t29 -67q0 -21 -7 -56l-40 -190q-5 -20 -5 -41q0 -42 41 -52l-14 -65q-33 -8 -50 -29t-26 -63 l-42 -198q-16 -76 -61 -107.5t-133 -31.5h-16z" />
<glyph unicode="~" horiz-adv-x="667" d="M162 576l-52 34q23 48 37 66q41 56 104 56q36 0 110 -32q67 -30 94 -30t44.5 13.5t40.5 50.5l53 -31q-30 -61 -61 -87q-42 -32 -89 -32q-32 0 -141 46q-33 15 -58 15t-43.5 -15.5t-38.5 -53.5z" />
<glyph unicode="&#xa1;" horiz-adv-x="319" d="M136 386l22 103h106l-22 -103h-106zM16 -177l115 481h86l-95 -481h-106z" />
<glyph unicode="&#xa2;" d="M255 -9l19 87q-76 15 -116.5 69t-40.5 139q0 126 72.5 207t190.5 85l18 82h53l-18 -84q42 -5 83 -20l-20 -69q-45 18 -78 21l-77 -365q57 1 111 21l-18 -77q-60 -15 -108 -14l-17 -82h-54zM290 153l75 352q-68 -13 -109.5 -72.5t-41.5 -144.5q0 -104 76 -135z" />
<glyph unicode="&#xa3;" d="M24 0l16 77h90l53 247h-81l11 53h81l15 72q25 119 82 170q61 53 157 53q61 0 139 -26l-22 -78q-56 24 -108 24q-89 0 -129 -78q-16 -32 -37 -137h156l-12 -53h-155l-53 -247h239l-17 -77h-425z" />
<glyph unicode="&#xa4;" d="M96 61l-42 43l77 78q-38 53 -38 112q0 58 39 112l-80 79l43 43l79 -79q54 39 115 39t114 -38l79 77l42 -42l-78 -78q39 -56 39 -113t-38 -112l79 -78l-43 -43l-78 78q-55 -39 -115 -39q-57 0 -115 39zM289 169q52 0 88.5 36.5t36.5 88.5q0 51 -36.5 88t-86.5 37 q-53 0 -90 -36.5t-37 -88.5t36.5 -88.5t88.5 -36.5z" />
<glyph unicode="&#xa5;" d="M173 0l57 259h-177l12 53h161l-17 54h-137l11 53h109l-78 248h87l92 -299l227 299h102l-185 -248h119l-11 -53h-149l-39 -54h175l-11 -53h-194l-58 -259h-96z" />
<glyph unicode="&#xa6;" horiz-adv-x="500" d="M223 330v337h90v-337h-90zM223 153h90v-320h-90v320z" />
<glyph unicode="&#xa7;" d="M1 -98q74 -35 153 -35q78 0 127 33.5t49 86.5q0 30 -20 49t-75 44l-53 24q-62 28 -89.5 59t-27.5 76q0 58 38 110q20 27 40 41.5t55 26.5q-36 23 -50.5 46t-14.5 60q0 86 78.5 146t191.5 60q80 0 145 -20l-26 -84q-67 28 -138 28q-70 0 -115.5 -31.5t-45.5 -80.5 q0 -28 20.5 -47.5t76.5 -45.5l64 -30q47 -22 60 -31q55 -36 55 -101q0 -116 -134 -177q35 -19 49 -41.5t14 -58.5q0 -41 -21.5 -82.5t-59.5 -72.5q-80 -66 -215 -66q-87 0 -158 26zM184 207q28 -18 70 -37l84 -36q77 56 77 120q0 31 -20.5 51.5t-78.5 48.5l-89 42 q-82 -60 -82 -122q0 -40 39 -67z" />
<glyph unicode="&#xa8;" horiz-adv-x="500" d="M369 583l20 97h88l-21 -97h-87zM188 583l21 97h87l-21 -97h-87z" />
<glyph unicode="&#xa9;" horiz-adv-x="779" d="M66 333q0 144 100 243.5t245 99.5q138 0 237 -101t99 -241q0 -142 -100 -242.5t-240 -100.5t-240.5 100.5t-100.5 241.5zM119 334q0 -121 84.5 -207.5t203.5 -86.5t203 86.5t84 207.5q0 120 -83.5 207t-199.5 87q-122 0 -207 -85.5t-85 -208.5zM219 335q0 83 59 136 t153 53q55 0 94 -18l-5 -58q-46 23 -86 23q-65 0 -106 -38t-41 -97q0 -60 42.5 -99.5t106.5 -39.5q41 0 89 18l4 -59q-41 -14 -91 -14q-100 0 -159.5 52t-59.5 141z" />
<glyph unicode="&#xaa;" horiz-adv-x="374" d="M198 369q-45 0 -73 24t-28 63q0 104 180 104q12 0 42 -2q2 7 2 16q0 25 -17.5 39t-48.5 14q-45 0 -100 -26l13 59q52 16 91 16q57 0 90.5 -25.5t33.5 -68.5q0 -22 -20 -122q-8 -42 -15 -86h-59q0 6 0.5 11t1.5 12l2 14q-41 -42 -95 -42zM215 418q69 0 93 94h-7 q-16 1 -17 1q-119 0 -119 -54q0 -18 14 -29.5t36 -11.5zM73 290l9 43h258l-10 -43h-257z" />
<glyph unicode="&#xab;" horiz-adv-x="511" d="M339 50l-92 209l168 182h89l-163 -197l80 -194h-82zM136 50l-90 231l160 160h92l-157 -181l74 -210h-79z" />
<glyph unicode="&#xac;" horiz-adv-x="500" d="M51 183v84h433v-267h-90v183h-343z" />
<glyph unicode="&#xad;" horiz-adv-x="251" d="M-7 219l16 75h251l-16 -75h-251z" />
<glyph unicode="&#xae;" horiz-adv-x="779" d="M66 333q0 144 100 243.5t245 99.5q138 0 237 -101t99 -241q0 -142 -100 -242.5t-240 -100.5t-240.5 100.5t-100.5 241.5zM119 334q0 -121 84.5 -207.5t203.5 -86.5t203 86.5t84 207.5q0 120 -83.5 207t-199.5 87q-122 0 -207 -85.5t-85 -208.5zM281 145v377h99 q58 0 91 -10q31 -10 49.5 -35t18.5 -56q0 -69 -75 -88q23 -13 39 -47l70 -141h-73l-53 113q-16 34 -28.5 43t-44.5 9h-29v-165h-64zM345 363h31q52 0 74.5 12.5t22.5 41.5q0 28 -21.5 40t-69.5 12h-37v-106z" />
<glyph unicode="&#xaf;" horiz-adv-x="500" d="M182 601l12 57h284l-12 -57h-284z" />
<glyph unicode="&#xb0;" horiz-adv-x="397" d="M271 444q-61 0 -103.5 42t-42.5 103q0 57 43 98.5t102 41.5q61 0 103.5 -41.5t42.5 -100.5t-42.5 -101t-102.5 -42zM271 499q36 0 62 26t26 61q0 37 -26 62.5t-63 25.5q-36 0 -62 -25.5t-26 -60.5q0 -38 26 -63.5t63 -25.5z" />
<glyph unicode="&#xb1;" d="M242 177v187h-193v73h193v186h73v-186h194v-73h-194v-187h-73zM49 57v73h460v-73h-460z" />
<glyph unicode="&#xb2;" horiz-adv-x="257" d="M59 400l10 45q36 24 104 79q62 52 62 84q0 31 -45 31q-33 0 -74 -19l4 44q44 15 78 15q40 0 63.5 -17.5t23.5 -47.5q0 -37 -34 -76t-119 -98h126l-9 -40h-190z" />
<glyph unicode="&#xb3;" horiz-adv-x="257" d="M62 411l12 41q33 -16 69 -16q31 0 51 14t20 35q0 39 -71 39q-9 0 -15 -1l8 40h12q41 0 64.5 12t23.5 34q0 31 -45 31q-31 0 -72 -15l5 44q40 10 71 10q43 0 67 -17t24 -47q0 -53 -60 -72q37 -19 37 -56q0 -40 -33.5 -65t-86.5 -25q-42 0 -81 14z" />
<glyph unicode="&#xb4;" horiz-adv-x="500" d="M253 567l110 137h100l-146 -137h-64z" />
<glyph unicode="&#xb5;" horiz-adv-x="562" d="M97 23l-35 -226h-97l147 692h90l-61 -287q-5 -21 -5 -50q0 -39 25 -63t66 -24q60 0 103 48q49 52 74 169l44 207h90l-71 -332q-18 -85 -27 -157h-81l4 36q3 23 10 55q-29 -43 -54 -62q-50 -37 -117 -37q-59 0 -105 31z" />
<glyph unicode="&#xb6;" d="M122 -203l107 500h-14q-64 0 -101 37t-37 99q0 49 22 98.5t59 80.5q62 55 178 55h265l-15 -70h-51l-170 -800h-77l170 800h-88l-170 -800h-78z" />
<glyph unicode="&#xb7;" horiz-adv-x="247" d="M59 203l23 107h108l-22 -107h-109z" />
<glyph unicode="&#xb8;" horiz-adv-x="500" d="M154 -77l53 77h41l-38 -53q27 4 37 4q32 0 51 -17.5t19 -45.5q0 -36 -35 -61.5t-84 -25.5q-48 0 -91 20l20 33q32 -13 63 -13q25 0 40.5 11t15.5 29q0 14 -12.5 23.5t-29.5 9.5q-12 0 -36 -7z" />
<glyph unicode="&#xb9;" horiz-adv-x="257" d="M142 400l47 219l-47 -30l-23 34l90 52h41l-58 -275h-50z" />
<glyph unicode="&#xba;" horiz-adv-x="417" d="M251 369q-66 0 -104.5 37t-38.5 100q0 73 50 121.5t127 48.5q65 0 103 -36t38 -99q0 -75 -49.5 -123.5t-125.5 -48.5zM253 418q42 0 72.5 36.5t30.5 88.5q0 38 -20.5 61t-54.5 23q-44 0 -74 -35.5t-30 -87.5q0 -40 20.5 -63t55.5 -23zM71 290l9 43h292l-9 -43h-292z" />
<glyph unicode="&#xbb;" horiz-adv-x="511" d="M210 50l158 181l-74 210h79l89 -231l-160 -160h-92zM4 50l164 197l-81 194h83l92 -209l-168 -182h-90z" />
<glyph unicode="&#xbc;" horiz-adv-x="911" d="M175 -39l526 744h62l-525 -744h-63zM163 267l65 305l5 19l-71 -46l-32 48l130 75h57l-85 -401h-69zM534 86l11 52l230 263h92l-55 -260h53l-12 -55h-53l-18 -86h-69l18 86h-197zM623 141h120l48 199z" />
<glyph unicode="&#xbd;" horiz-adv-x="911" d="M175 -39l526 744h62l-525 -744h-63zM163 267l65 305l5 19l-71 -46l-32 48l130 75h57l-85 -401h-69zM526 0l14 63q68 46 151 116q92 76 92 125q0 22 -18 34.5t-49 12.5q-48 0 -106 -26l6 61q57 20 111 20q58 0 92 -25t34 -69q0 -70 -89 -150q-72 -65 -139 -107h188 l-12 -55h-275z" />
<glyph unicode="&#xbe;" horiz-adv-x="911" d="M174 -39l526 744h63l-526 -744h-63zM46 282l16 57q49 -25 100 -25q46 0 76.5 21.5t30.5 54.5q0 59 -106 59q-11 0 -21 -1l12 55q147 0 147 70q0 47 -68 47q-44 0 -104 -21l7 61q59 14 103 14q61 0 96 -24.5t35 -68.5q0 -39 -28 -70q-22 -24 -65 -37q60 -24 60 -82 t-48.5 -94.5t-125.5 -36.5q-61 0 -117 21zM533 86l11 52l231 263h92l-56 -260h53l-11 -55h-53l-19 -86h-69l19 86h-198zM623 141h120l48 199z" />
<glyph unicode="&#xbf;" horiz-adv-x="455" d="M228 386l22 103h100l-22 -103h-100zM-1 -37q0 67 51 124q17 19 31 31.5t79 65.5q30 25 42.5 48.5t19.5 71.5h89l-11 -51q-11 -48 -30 -77.5t-66 -66.5q-71 -54 -84 -72q-23 -30 -23 -62q0 -38 28.5 -59t81.5 -21q68 0 143 32l-11 -91q-92 -23 -148 -23q-91 0 -141.5 39.5 t-50.5 110.5z" />
<glyph unicode="&#xc0;" horiz-adv-x="687" d="M418 729l-124 130h108l81 -130h-65zM-45 0l428 667h101l146 -667h-97l-36 167h-328l-106 -167h-108zM216 244h264l-45 233q-13 69 -15 112q-17 -42 -54 -103z" />
<glyph unicode="&#xc1;" horiz-adv-x="687" d="M413 729l104 130h114l-149 -130h-69zM-45 0l428 667h101l146 -667h-97l-36 167h-328l-106 -167h-108zM216 244h264l-45 233q-13 69 -15 112q-17 -42 -54 -103z" />
<glyph unicode="&#xc2;" horiz-adv-x="687" d="M292 729l137 130h89l81 -130h-80l-54 83l-89 -83h-84zM-45 0l428 667h101l146 -667h-97l-36 167h-328l-106 -167h-108zM216 244h264l-45 233q-13 69 -15 112q-17 -42 -54 -103z" />
<glyph unicode="&#xc3;" horiz-adv-x="687" d="M306 745q32 103 105 103q32 0 90 -31q24 -13 37 -13q34 0 48 42l46 -1q-1 -2 -2 -5t-2 -4q-12 -39 -29 -60q-29 -35 -68 -35q-19 0 -33 4.5t-55 25.5q-34 17 -47 17q-26 0 -44 -43h-46zM-45 0l428 667h101l146 -667h-97l-36 167h-328l-106 -167h-108zM216 244h264 l-45 233q-13 69 -15 112q-17 -42 -54 -103z" />
<glyph unicode="&#xc4;" horiz-adv-x="687" d="M509 742l21 97h91l-22 -97h-90zM314 742l21 97h91l-21 -97h-91zM-45 0l428 667h101l146 -667h-97l-36 167h-328l-106 -167h-108zM216 244h264l-45 233q-13 69 -15 112q-17 -42 -54 -103z" />
<glyph unicode="&#xc5;" horiz-adv-x="687" d="M449 702q-42 0 -71 29.5t-29 70.5t29.5 70t71.5 29q40 0 69 -29.5t29 -69.5q0 -41 -29 -70.5t-70 -29.5zM448 753q20 0 34 14.5t14 34.5q0 19 -14 33.5t-33 14.5q-20 0 -34.5 -14t-14.5 -34t14 -34.5t34 -14.5zM-45 0l428 667h101l146 -667h-97l-36 167h-328l-106 -167 h-108zM216 244h264l-45 233q-13 69 -15 112q-17 -42 -54 -103z" />
<glyph unicode="&#xc6;" horiz-adv-x="881" d="M-51 0l534 667h417l-16 -82h-245l-39 -201h228l-18 -82h-227l-42 -220h251l-17 -82h-348l32 168h-257l-136 -168h-117zM266 250h209l72 355z" />
<glyph unicode="&#xc7;" horiz-adv-x="594" d="M155 68q-92 80 -92 218q0 89 36.5 169.5t101.5 133.5q105 87 265 87q94 0 163 -31l-27 -82q-64 30 -139 30q-128 0 -213.5 -85t-85.5 -213q0 -100 61 -160t162 -60q71 0 132 25l-12 -91q-59 -17 -145 -18l-35 -44q28 4 35 4q30 0 50 -18t20 -45q0 -40 -34.5 -66 t-86.5 -26q-49 0 -90 20l20 36q31 -14 63 -14q25 0 40.5 11.5t15.5 29.5q0 15 -12 25t-31 10q-7 0 -35 -7l-14 16l53 72q-105 18 -166 73z" />
<glyph unicode="&#xc8;" horiz-adv-x="507" d="M341 729l-124 130h108l81 -130h-65zM27 0l142 667h364l-17 -82h-268l-42 -200h250l-17 -82h-251l-47 -221h280l-17 -82h-377z" />
<glyph unicode="&#xc9;" horiz-adv-x="507" d="M321 729l104 130h114l-149 -130h-69zM27 0l142 667h364l-17 -82h-268l-42 -200h250l-17 -82h-251l-47 -221h280l-17 -82h-377z" />
<glyph unicode="&#xca;" horiz-adv-x="507" d="M212 729l137 130h89l81 -130h-80l-54 83l-89 -83h-84zM27 0l142 667h364l-17 -82h-268l-42 -200h250l-17 -82h-251l-47 -221h280l-17 -82h-377z" />
<glyph unicode="&#xcb;" horiz-adv-x="507" d="M425 742l21 97h91l-22 -97h-90zM230 742l21 97h91l-21 -97h-91zM27 0l142 667h364l-17 -82h-268l-42 -200h250l-17 -82h-251l-47 -221h280l-17 -82h-377z" />
<glyph unicode="&#xcc;" horiz-adv-x="250" d="M198 729l-114 130h105l75 -130h-66zM23 0l142 667h96l-141 -667h-97z" />
<glyph unicode="&#xcd;" horiz-adv-x="250" d="M187 729l98 130h110l-139 -130h-69zM23 0l142 667h96l-141 -667h-97z" />
<glyph unicode="&#xce;" horiz-adv-x="250" d="M85 729l120 130h89l65 -130h-77l-40 86l-77 -86h-80zM23 0l142 667h96l-141 -667h-97z" />
<glyph unicode="&#xcf;" horiz-adv-x="250" d="M256 742l21 97h86l-21 -97h-86zM117 742l21 97h86l-21 -97h-86zM23 0l142 667h96l-141 -667h-97z" />
<glyph unicode="&#xd0;" horiz-adv-x="673" d="M27 0l65 303h-67l17 80h67l60 284h105q98 0 159.5 -12.5t109.5 -43.5q109 -69 109 -231q0 -98 -39.5 -181.5t-107.5 -129.5q-57 -39 -134.5 -54t-218.5 -15h-125zM141 82h61q150 0 225 45q58 35 91.5 102t33.5 147q0 109 -63 159t-202 50h-39l-43 -202h174l-17 -80h-174z " />
<glyph unicode="&#xd1;" horiz-adv-x="681" d="M306 745q32 103 105 103q32 0 90 -31q24 -13 37 -13q34 0 48 42l46 -1q-1 -2 -2 -5t-2 -4q-12 -39 -29 -60q-29 -35 -68 -35q-19 0 -33 4.5t-55 25.5q-34 17 -47 17q-26 0 -44 -43h-46zM27 0l142 667h125l121 -355q65 -193 68 -256q6 90 35 225l82 386h90l-142 -667h-125 l-128 377q-50 146 -60 226q-3 -58 -19 -135l-99 -468h-90z" />
<glyph unicode="&#xd2;" horiz-adv-x="723" d="M438 729l-124 130h108l81 -130h-65zM60 276q0 80 32 161.5t86 136.5q97 102 253 102q126 0 196 -72.5t70 -203.5q0 -81 -29.5 -160.5t-81.5 -140.5q-93 -108 -254 -108q-131 0 -201.5 74t-70.5 211zM160 270q0 -93 48 -144.5t135 -51.5q115 0 182 98q72 104 72 233 q0 84 -47 136t-123 52q-116 0 -194 -105q-33 -44 -53 -104t-20 -114z" />
<glyph unicode="&#xd3;" horiz-adv-x="723" d="M413 729l104 130h114l-149 -130h-69zM60 276q0 80 32 161.5t86 136.5q97 102 253 102q126 0 196 -72.5t70 -203.5q0 -81 -29.5 -160.5t-81.5 -140.5q-93 -108 -254 -108q-131 0 -201.5 74t-70.5 211zM160 270q0 -93 48 -144.5t135 -51.5q115 0 182 98q72 104 72 233 q0 84 -47 136t-123 52q-116 0 -194 -105q-33 -44 -53 -104t-20 -114z" />
<glyph unicode="&#xd4;" horiz-adv-x="723" d="M305 729l137 130h89l81 -130h-80l-54 83l-89 -83h-84zM60 276q0 80 32 161.5t86 136.5q97 102 253 102q126 0 196 -72.5t70 -203.5q0 -81 -29.5 -160.5t-81.5 -140.5q-93 -108 -254 -108q-131 0 -201.5 74t-70.5 211zM160 270q0 -93 48 -144.5t135 -51.5q115 0 182 98 q72 104 72 233q0 84 -47 136t-123 52q-116 0 -194 -105q-33 -44 -53 -104t-20 -114z" />
<glyph unicode="&#xd5;" horiz-adv-x="723" d="M319 745q32 103 105 103q32 0 90 -31q24 -13 37 -13q34 0 48 42l46 -1q-1 -2 -2 -5t-2 -4q-12 -39 -29 -60q-29 -35 -68 -35q-18 0 -32.5 4.5t-55.5 25.5q-34 17 -47 17q-26 0 -44 -43h-46zM60 276q0 80 32 161.5t86 136.5q97 102 253 102q126 0 196 -72.5t70 -203.5 q0 -81 -29.5 -160.5t-81.5 -140.5q-93 -108 -254 -108q-131 0 -201.5 74t-70.5 211zM160 270q0 -93 48 -144.5t135 -51.5q115 0 182 98q72 104 72 233q0 84 -47 136t-123 52q-116 0 -194 -105q-33 -44 -53 -104t-20 -114z" />
<glyph unicode="&#xd6;" horiz-adv-x="723" d="M517 742l21 97h91l-22 -97h-90zM322 742l21 97h91l-21 -97h-91zM60 276q0 80 32 161.5t86 136.5q97 102 253 102q126 0 196 -72.5t70 -203.5q0 -81 -29.5 -160.5t-81.5 -140.5q-93 -108 -254 -108q-131 0 -201.5 74t-70.5 211zM160 270q0 -93 48 -144.5t135 -51.5 q115 0 182 98q72 104 72 233q0 84 -47 136t-123 52q-116 0 -194 -105q-33 -44 -53 -104t-20 -114z" />
<glyph unicode="&#xd7;" d="M153 142l-52 52l146 146l-146 146l52 52l146 -146l146 146l52 -52l-146 -146l146 -146l-52 -52l-146 146z" />
<glyph unicode="&#xd8;" horiz-adv-x="723" d="M43 24l65 69q-48 73 -48 179q0 83 32 164.5t86 137.5q100 102 251 102q110 0 178 -53l60 63l47 -43l-64 -68q47 -73 47 -177q0 -80 -29.5 -159t-81.5 -140q-93 -108 -252 -108q-114 0 -182 54l-62 -65zM180 167l356 386q-42 40 -110 40q-108 0 -187 -98t-79 -232 q0 -47 20 -96zM219 115q57 -41 123 -41q116 0 183 98q33 49 52.5 112t19.5 122q0 53 -21 95z" />
<glyph unicode="&#xd9;" horiz-adv-x="671" d="M415 729l-124 130h108l81 -130h-65zM72 188q0 57 15 126l75 353h97l-78 -363q-13 -57 -13 -96q0 -60 39 -97t102 -37q42 0 79.5 18t60.5 49q39 51 64 168l77 358h96l-80 -376q-20 -95 -45.5 -148.5t-65.5 -87.5q-73 -64 -190 -64q-104 0 -168.5 54.5t-64.5 142.5z" />
<glyph unicode="&#xda;" horiz-adv-x="671" d="M397 729l104 130h114l-149 -130h-69zM72 188q0 57 15 126l75 353h97l-78 -363q-13 -57 -13 -96q0 -60 39 -97t102 -37q42 0 79.5 18t60.5 49q39 51 64 168l77 358h96l-80 -376q-20 -95 -45.5 -148.5t-65.5 -87.5q-73 -64 -190 -64q-104 0 -168.5 54.5t-64.5 142.5z" />
<glyph unicode="&#xdb;" horiz-adv-x="671" d="M290 729l137 130h89l81 -130h-80l-54 83l-89 -83h-84zM72 188q0 57 15 126l75 353h97l-78 -363q-13 -57 -13 -96q0 -60 39 -97t102 -37q42 0 79.5 18t60.5 49q39 51 64 168l77 358h96l-80 -376q-20 -95 -45.5 -148.5t-65.5 -87.5q-73 -64 -190 -64q-104 0 -168.5 54.5 t-64.5 142.5z" />
<glyph unicode="&#xdc;" horiz-adv-x="671" d="M499 742l21 97h91l-22 -97h-90zM304 742l21 97h91l-21 -97h-91zM72 188q0 57 15 126l75 353h97l-78 -363q-13 -57 -13 -96q0 -60 39 -97t102 -37q42 0 79.5 18t60.5 49q39 51 64 168l77 358h96l-80 -376q-20 -95 -45.5 -148.5t-65.5 -87.5q-73 -64 -190 -64 q-104 0 -168.5 54.5t-64.5 142.5z" />
<glyph unicode="&#xdd;" horiz-adv-x="622" d="M353 729l104 130h114l-149 -130h-69zM207 0l60 280l-179 387h106l132 -299l263 299h121l-347 -387l-59 -280h-97z" />
<glyph unicode="&#xde;" horiz-adv-x="539" d="M27 0l142 667h97l-22 -100h32q120 0 181 -37q72 -44 72 -138q0 -49 -22.5 -95t-60.5 -75q-72 -55 -216 -55h-71l-35 -167h-97zM177 249h54q103 0 147 33q51 38 51 104q0 99 -152 99h-50z" />
<glyph unicode="&#xdf;" horiz-adv-x="570" d="M15 0l109 512q23 112 72 161q56 57 163 57q104 0 151 -50q44 -44 44 -121q0 -84 -61 -137q-36 -33 -102 -43q49 -16 76 -36q53 -39 53 -112q0 -94 -58 -162q-65 -77 -195 -77q-43 0 -92 8l17 75q38 -13 74 -13q71 0 113.5 44.5t42.5 118.5q0 61 -35 89t-110 29l16 73 q5 -1 11 -1q63 0 108 42t45 100q0 47 -28.5 75t-76.5 28q-59 0 -92 -41t-54 -141l-101 -478h-90z" />
<glyph unicode="&#xe0;" horiz-adv-x="506" d="M287 567l-113 137h94l79 -137h-60zM12 131q0 43 21.5 79t57.5 54q73 37 203 37q38 0 73 -5q3 30 3 39q0 43 -29 67.5t-79 24.5q-73 0 -152 -38l18 83q79 25 139 25q87 0 138 -40.5t51 -110.5q0 -28 -4 -54t-30 -154q-3 -10 -24 -138h-82q6 56 14 85q-59 -93 -164 -93 q-69 0 -111.5 38.5t-42.5 100.5zM107 136q0 -33 23.5 -53.5t60.5 -20.5q63 0 107 50q32 39 51 121q-32 2 -43 2q-95 0 -147 -26t-52 -73z" />
<glyph unicode="&#xe1;" horiz-adv-x="506" d="M275 567l110 137h100l-146 -137h-64zM12 131q0 43 21.5 79t57.5 54q73 37 203 37q38 0 73 -5q3 30 3 39q0 43 -29 67.5t-79 24.5q-73 0 -152 -38l18 83q79 25 139 25q87 0 138 -40.5t51 -110.5q0 -28 -4 -54t-30 -154q-3 -10 -24 -138h-82q6 56 14 85q-59 -93 -164 -93 q-69 0 -111.5 38.5t-42.5 100.5zM107 136q0 -33 23.5 -53.5t60.5 -20.5q63 0 107 50q32 39 51 121q-32 2 -43 2q-95 0 -147 -26t-52 -73z" />
<glyph unicode="&#xe2;" horiz-adv-x="506" d="M165 567l132 137h86l74 -137h-77l-48 92l-91 -92h-76zM12 131q0 43 21.5 79t57.5 54q73 37 203 37q38 0 73 -5q3 30 3 39q0 43 -29 67.5t-79 24.5q-73 0 -152 -38l18 83q79 25 139 25q87 0 138 -40.5t51 -110.5q0 -28 -4 -54t-30 -154q-3 -10 -24 -138h-82q6 56 14 85 q-59 -93 -164 -93q-69 0 -111.5 38.5t-42.5 100.5zM107 136q0 -33 23.5 -53.5t60.5 -20.5q63 0 107 50q32 39 51 121q-32 2 -43 2q-95 0 -147 -26t-52 -73z" />
<glyph unicode="&#xe3;" horiz-adv-x="506" d="M173 585q28 98 102 98q23 0 84 -29q23 -11 34 -11q29 0 41 37h48q-14 -47 -39 -73t-58 -26q-23 0 -103 38q-10 5 -20 5q-28 0 -42 -39h-47zM12 131q0 43 21.5 79t57.5 54q73 37 203 37q38 0 73 -5q3 30 3 39q0 43 -29 67.5t-79 24.5q-73 0 -152 -38l18 83q79 25 139 25 q87 0 138 -40.5t51 -110.5q0 -28 -4 -54t-30 -154q-3 -10 -24 -138h-82q6 56 14 85q-59 -93 -164 -93q-69 0 -111.5 38.5t-42.5 100.5zM107 136q0 -33 23.5 -53.5t60.5 -20.5q63 0 107 50q32 39 51 121q-32 2 -43 2q-95 0 -147 -26t-52 -73z" />
<glyph unicode="&#xe4;" horiz-adv-x="506" d="M366 583l20 97h88l-21 -97h-87zM185 583l21 97h87l-21 -97h-87zM12 131q0 43 21.5 79t57.5 54q73 37 203 37q38 0 73 -5q3 30 3 39q0 43 -29 67.5t-79 24.5q-73 0 -152 -38l18 83q79 25 139 25q87 0 138 -40.5t51 -110.5q0 -28 -4 -54t-30 -154q-3 -10 -24 -138h-82 q6 56 14 85q-59 -93 -164 -93q-69 0 -111.5 38.5t-42.5 100.5zM107 136q0 -33 23.5 -53.5t60.5 -20.5q63 0 107 50q32 39 51 121q-32 2 -43 2q-95 0 -147 -26t-52 -73z" />
<glyph unicode="&#xe5;" horiz-adv-x="506" d="M324 542q-40 0 -68.5 28.5t-28.5 69.5q0 40 29 68t70 28q38 0 66.5 -28.5t28.5 -68.5t-28.5 -68.5t-68.5 -28.5zM324 591q20 0 34 14.5t14 33.5t-14 33.5t-33 14.5q-20 0 -34.5 -14t-14.5 -34t14 -34t34 -14zM12 131q0 43 21.5 79t57.5 54q73 37 203 37q38 0 73 -5 q3 30 3 39q0 43 -29 67.5t-79 24.5q-73 0 -152 -38l18 83q79 25 139 25q87 0 138 -40.5t51 -110.5q0 -28 -4 -54t-30 -154q-3 -10 -24 -138h-82q6 56 14 85q-59 -93 -164 -93q-69 0 -111.5 38.5t-42.5 100.5zM107 136q0 -33 23.5 -53.5t60.5 -20.5q63 0 107 50q32 39 51 121 q-32 2 -43 2q-95 0 -147 -26t-52 -73z" />
<glyph unicode="&#xe6;" horiz-adv-x="835" d="M12 137q0 41 21 75.5t57 53.5q71 37 210 37q41 0 82 -4q5 21 5 37q0 43 -32 67t-88 24q-74 0 -158 -36l17 83q75 23 148 23q68 0 112 -19q23 -10 36 -23.5t24 -40.5q28 45 65.5 64t98.5 19q95 0 146 -49.5t51 -141.5q0 -36 -11 -83h-343q-2 -24 -2 -32q0 -62 39.5 -95.5 t112.5 -33.5q61 0 136 31l-14 -83q-75 -18 -144 -18q-161 0 -190 105q-26 -55 -72 -80t-121 -25q-88 0 -137 38.5t-49 106.5zM465 293h252q2 26 2 35q0 47 -28 73t-77 26q-67 0 -108 -49q-26 -28 -41 -85zM108 136q0 -34 25.5 -54t66.5 -20q78 0 123 62q24 33 43 107 q-32 2 -50 2q-92 0 -136 -14q-72 -23 -72 -83z" />
<glyph unicode="&#xe7;" horiz-adv-x="442" d="M154 -76l50 72q-79 13 -122 67t-43 142q0 130 77 211t199 81q60 0 123 -22l-21 -69q-54 21 -96 21q-81 0 -133.5 -62t-52.5 -158q0 -70 35 -107.5t100 -37.5q43 0 103 22l-18 -78q-59 -14 -102 -14h-11l-32 -45q27 4 37 4q32 0 51 -17.5t19 -45.5q0 -36 -35 -61.5 t-84 -25.5q-48 0 -91 20l20 33q30 -13 63 -13q25 0 40.5 11t15.5 29q0 14 -12.5 23.5t-29.5 9.5q-9 0 -36 -7z" />
<glyph unicode="&#xe8;" horiz-adv-x="513" d="M304 567l-113 137h94l79 -137h-60zM37 200q0 61 21.5 121.5t58.5 101.5q66 74 180 74q89 0 138.5 -48.5t49.5 -134.5q0 -35 -11 -91h-344q-4 -32 -4 -44q0 -56 39 -86.5t111 -30.5q60 0 142 29l-17 -78q-75 -21 -137 -21q-111 0 -169 53.5t-58 154.5zM143 293h251 q3 21 3 38q0 44 -27 70t-74 26q-69 0 -113 -52q-25 -29 -40 -82z" />
<glyph unicode="&#xe9;" horiz-adv-x="513" d="M283 567l110 137h100l-146 -137h-64zM37 200q0 61 21.5 121.5t58.5 101.5q66 74 180 74q89 0 138.5 -48.5t49.5 -134.5q0 -35 -11 -91h-344q-4 -32 -4 -44q0 -56 39 -86.5t111 -30.5q60 0 142 29l-17 -78q-75 -21 -137 -21q-111 0 -169 53.5t-58 154.5zM143 293h251 q3 21 3 38q0 44 -27 70t-74 26q-69 0 -113 -52q-25 -29 -40 -82z" />
<glyph unicode="&#xea;" horiz-adv-x="513" d="M180 567l132 137h86l74 -137h-77l-48 92l-91 -92h-76zM37 200q0 61 21.5 121.5t58.5 101.5q66 74 180 74q89 0 138.5 -48.5t49.5 -134.5q0 -35 -11 -91h-344q-4 -32 -4 -44q0 -56 39 -86.5t111 -30.5q60 0 142 29l-17 -78q-75 -21 -137 -21q-111 0 -169 53.5t-58 154.5z M143 293h251q3 21 3 38q0 44 -27 70t-74 26q-69 0 -113 -52q-25 -29 -40 -82z" />
<glyph unicode="&#xeb;" horiz-adv-x="513" d="M381 583l20 97h88l-21 -97h-87zM200 583l21 97h87l-21 -97h-87zM37 200q0 61 21.5 121.5t58.5 101.5q66 74 180 74q89 0 138.5 -48.5t49.5 -134.5q0 -35 -11 -91h-344q-4 -32 -4 -44q0 -56 39 -86.5t111 -30.5q60 0 142 29l-17 -78q-75 -21 -137 -21q-111 0 -169 53.5 t-58 154.5zM143 293h251q3 21 3 38q0 44 -27 70t-74 26q-69 0 -113 -52q-25 -29 -40 -82z" />
<glyph unicode="&#xec;" horiz-adv-x="227" d="M157 567l-107 137h90l77 -137h-60zM15 0l104 489h90l-104 -489h-90z" />
<glyph unicode="&#xed;" horiz-adv-x="227" d="M145 567l104 137h96l-136 -137h-64zM15 0l104 489h90l-104 -489h-90z" />
<glyph unicode="&#xee;" horiz-adv-x="227" d="M51 567l115 137h86l57 -137h-73l-35 97l-77 -97h-73zM15 0l104 489h90l-104 -489h-90z" />
<glyph unicode="&#xef;" horiz-adv-x="227" d="M205 583l21 97h82l-20 -97h-83zM73 583l21 97h82l-21 -97h-82zM15 0l104 489h90l-104 -489h-90z" />
<glyph unicode="&#xf0;" horiz-adv-x="569" d="M39 211q0 124 77.5 206t194.5 82q43 0 69 -12t57 -46q-1 44 -18 89t-43 69l-95 -58l-31 44l82 51q-39 20 -99 33l25 55q36 -4 76 -17.5t64 -29.5l98 60l33 -44l-89 -55q44 -48 69 -129.5t25 -176.5q0 -163 -72.5 -251t-205.5 -88q-101 0 -159 58.5t-58 159.5zM136 208 q0 -68 32.5 -106.5t90.5 -38.5q73 0 123 65q53 72 53 157q0 65 -33.5 104.5t-89.5 39.5q-74 0 -125 -63.5t-51 -157.5z" />
<glyph unicode="&#xf1;" horiz-adv-x="571" d="M207 585q28 98 102 98q23 0 84 -29q23 -11 34 -11q29 0 41 37h48q-14 -47 -39 -73t-58 -26q-23 0 -103 38q-10 5 -20 5q-28 0 -42 -39h-47zM21 0l74 348q8 38 24 141h87l-7 -33l-6 -34q-3 -13 -7 -25q33 53 74.5 76.5t99.5 23.5q72 0 115.5 -41t43.5 -109q0 -52 -16 -126 l-47 -221h-90l48 227q15 73 15 113q0 38 -25 61t-66 23q-70 0 -117 -57q-43 -52 -66 -160l-44 -207h-90z" />
<glyph unicode="&#xf2;" horiz-adv-x="569" d="M322 567l-113 137h94l79 -137h-60zM39 214q0 57 23 114.5t61 95.5q73 73 192 73q101 0 158.5 -58t57.5 -160q0 -66 -26 -127t-70 -98q-72 -62 -178 -62q-101 0 -159.5 59.5t-58.5 162.5zM136 209q0 -68 33 -107.5t90 -39.5q71 0 122.5 65.5t51.5 155.5q0 67 -33 105.5 t-89 38.5q-73 0 -124 -64t-51 -154z" />
<glyph unicode="&#xf3;" horiz-adv-x="569" d="M307 567l110 137h100l-146 -137h-64zM39 214q0 57 23 114.5t61 95.5q73 73 192 73q101 0 158.5 -58t57.5 -160q0 -66 -26 -127t-70 -98q-72 -62 -178 -62q-101 0 -159.5 59.5t-58.5 162.5zM136 209q0 -68 33 -107.5t90 -39.5q71 0 122.5 65.5t51.5 155.5q0 67 -33 105.5 t-89 38.5q-73 0 -124 -64t-51 -154z" />
<glyph unicode="&#xf4;" horiz-adv-x="569" d="M203 567l132 137h86l74 -137h-77l-48 92l-91 -92h-76zM39 214q0 57 23 114.5t61 95.5q73 73 192 73q101 0 158.5 -58t57.5 -160q0 -66 -26 -127t-70 -98q-72 -62 -178 -62q-101 0 -159.5 59.5t-58.5 162.5zM136 209q0 -68 33 -107.5t90 -39.5q71 0 122.5 65.5t51.5 155.5 q0 67 -33 105.5t-89 38.5q-73 0 -124 -64t-51 -154z" />
<glyph unicode="&#xf5;" horiz-adv-x="569" d="M211 585q28 98 102 98q23 0 84 -29q23 -11 34 -11q29 0 41 37h48q-14 -47 -39 -73t-58 -26q-23 0 -103 38q-10 5 -20 5q-28 0 -42 -39h-47zM39 214q0 57 23 114.5t61 95.5q73 73 192 73q101 0 158.5 -58t57.5 -160q0 -66 -26 -127t-70 -98q-72 -62 -178 -62 q-101 0 -159.5 59.5t-58.5 162.5zM136 209q0 -68 33 -107.5t90 -39.5q71 0 122.5 65.5t51.5 155.5q0 67 -33 105.5t-89 38.5q-73 0 -124 -64t-51 -154z" />
<glyph unicode="&#xf6;" horiz-adv-x="569" d="M405 583l20 97h88l-21 -97h-87zM224 583l21 97h87l-21 -97h-87zM39 214q0 57 23 114.5t61 95.5q73 73 192 73q101 0 158.5 -58t57.5 -160q0 -66 -26 -127t-70 -98q-72 -62 -178 -62q-101 0 -159.5 59.5t-58.5 162.5zM136 209q0 -68 33 -107.5t90 -39.5q71 0 122.5 65.5 t51.5 155.5q0 67 -33 105.5t-89 38.5q-73 0 -124 -64t-51 -154z" />
<glyph unicode="&#xf7;" d="M251 444v95h95v-95h-95zM69 304v73h460v-73h-460zM251 142v95h95v-95h-95z" />
<glyph unicode="&#xf8;" horiz-adv-x="569" d="M23 16l56 57q-40 61 -40 137q0 60 23 118t61 96q75 73 190 73q86 0 138 -38l53 55l43 -37l-56 -58q40 -58 40 -142q0 -64 -26 -125t-70 -98q-72 -62 -178 -62q-80 0 -139 41l-52 -54zM148 138l241 261q-26 28 -80 28q-72 0 -122.5 -65t-50.5 -158q0 -35 12 -66zM179 91 q32 -29 79 -29q72 0 123.5 65.5t51.5 156.5q0 34 -11 69z" />
<glyph unicode="&#xf9;" horiz-adv-x="562" d="M324 567l-113 137h94l79 -137h-60zM44 129q0 36 11 88l58 272h90l-61 -287q-6 -26 -6 -50q0 -39 25 -63t66 -24q57 0 103 48q49 53 74 169l44 207h90l-70 -332q-18 -84 -28 -157h-80l4 36q3 22 10 55q-29 -43 -54 -62q-50 -37 -118 -37q-70 0 -114 38t-44 99z" />
<glyph unicode="&#xfa;" horiz-adv-x="562" d="M299 567l110 137h100l-146 -137h-64zM44 129q0 36 11 88l58 272h90l-61 -287q-6 -26 -6 -50q0 -39 25 -63t66 -24q57 0 103 48q49 53 74 169l44 207h90l-70 -332q-18 -84 -28 -157h-80l4 36q3 22 10 55q-29 -43 -54 -62q-50 -37 -118 -37q-70 0 -114 38t-44 99z" />
<glyph unicode="&#xfb;" horiz-adv-x="562" d="M199 567l132 137h86l74 -137h-77l-48 92l-91 -92h-76zM44 129q0 36 11 88l58 272h90l-61 -287q-6 -26 -6 -50q0 -39 25 -63t66 -24q57 0 103 48q49 53 74 169l44 207h90l-70 -332q-18 -84 -28 -157h-80l4 36q3 22 10 55q-29 -43 -54 -62q-50 -37 -118 -37q-70 0 -114 38 t-44 99z" />
<glyph unicode="&#xfc;" horiz-adv-x="562" d="M399 583l20 97h88l-21 -97h-87zM218 583l21 97h87l-21 -97h-87zM44 129q0 36 11 88l58 272h90l-61 -287q-6 -26 -6 -50q0 -39 25 -63t66 -24q57 0 103 48q49 53 74 169l44 207h90l-70 -332q-18 -84 -28 -157h-80l4 36q3 22 10 55q-29 -43 -54 -62q-50 -37 -118 -37 q-70 0 -114 38t-44 99z" />
<glyph unicode="&#xfd;" horiz-adv-x="467" d="M245 567l110 137h100l-146 -137h-64zM110 -53l20 35l-80 507h93l45 -321q8 -53 8 -75v-15q11 31 36 78l181 333h97l-318 -563q-44 -77 -83 -105.5t-103 -28.5q-30 0 -63 9l16 75q21 -7 43 -7q36 0 59 17t49 61z" />
<glyph unicode="&#xfe;" horiz-adv-x="575" d="M115 24l-48 -227h-90l196 923h90l-45 -215q-10 -48 -30 -92q35 44 73.5 64t92.5 20q85 0 134 -52.5t49 -143.5q0 -62 -20.5 -123.5t-56.5 -106.5q-64 -79 -177 -79q-83 0 -126 43q-19 19 -32 55q-3 -33 -10 -66zM156 200q0 -65 31 -101.5t87 -36.5q74 0 118 70 q48 78 48 170q0 59 -28 92t-78 33q-73 0 -125.5 -67.5t-52.5 -159.5z" />
<glyph unicode="&#xff;" horiz-adv-x="467" d="M347 583l20 97h88l-21 -97h-87zM166 583l21 97h87l-21 -97h-87zM110 -53l20 35l-80 507h93l45 -321q8 -53 8 -75v-15q11 31 36 78l181 333h97l-318 -563q-44 -77 -83 -105.5t-103 -28.5q-30 0 -63 9l16 75q21 -7 43 -7q36 0 59 17t49 61z" />
<glyph unicode="&#x152;" horiz-adv-x="904" d="M68 296q0 161 101 268q104 111 300 111q27 0 96 -5q33 -3 56 -3h302l-17 -82h-254l-42 -200h241l-18 -82h-241l-46 -221h269l-18 -82h-278q-13 0 -101 -6q-26 -2 -42 -2q-144 0 -226 81t-82 223zM168 289q0 -94 61 -154t157 -60q27 0 63 7l106 499q-42 7 -78 7 q-156 0 -238 -98q-71 -84 -71 -201z" />
<glyph unicode="&#x153;" horiz-adv-x="896" d="M39 213q0 124 82 208q75 76 196 76q94 0 139 -43q20 -18 35 -59q32 56 72 79t107 23q94 0 145.5 -49t51.5 -139q0 -36 -11 -87h-339q-2 -24 -2 -33q0 -58 43 -92.5t115 -34.5q54 0 128 30l-14 -77q-74 -23 -136 -23q-87 0 -142 34q-38 23 -52 77q-21 -53 -60 -77 q-55 -34 -135 -34q-101 0 -162 60.5t-61 160.5zM531 292h247q2 26 2 35q0 46 -22 69q-28 31 -78 31q-63 0 -107 -50q-26 -30 -42 -85zM173 98q38 -36 91 -36q69 0 121 66.5t52 155.5q0 66 -33 104.5t-89 38.5q-74 0 -126.5 -63.5t-52.5 -153.5q0 -76 37 -112z" />
<glyph unicode="&#x178;" horiz-adv-x="622" d="M461 742l21 97h91l-22 -97h-90zM266 742l21 97h91l-21 -97h-91zM207 0l60 280l-179 387h106l132 -299l263 299h121l-347 -387l-59 -280h-97z" />
<glyph unicode="&#x2c6;" horiz-adv-x="500" d="M170 567l132 137h86l74 -137h-77l-48 92l-91 -92h-76z" />
<glyph unicode="&#x2dc;" horiz-adv-x="500" d="M178 585q28 98 102 98q23 0 84 -29q23 -11 34 -11q29 0 41 37h48q-14 -47 -39 -73t-58 -26q-23 0 -103 38q-10 5 -20 5q-29 0 -42 -39h-47z" />
<glyph unicode="&#x2000;" horiz-adv-x="450" />
<glyph unicode="&#x2001;" horiz-adv-x="901" />
<glyph unicode="&#x2002;" horiz-adv-x="450" />
<glyph unicode="&#x2003;" horiz-adv-x="901" />
<glyph unicode="&#x2004;" horiz-adv-x="300" />
<glyph unicode="&#x2005;" horiz-adv-x="225" />
<glyph unicode="&#x2006;" horiz-adv-x="150" />
<glyph unicode="&#x2007;" horiz-adv-x="150" />
<glyph unicode="&#x2008;" horiz-adv-x="112" />
<glyph unicode="&#x2009;" horiz-adv-x="180" />
<glyph unicode="&#x200a;" horiz-adv-x="50" />
<glyph unicode="&#x2010;" horiz-adv-x="251" d="M-7 219l16 75h251l-16 -75h-251z" />
<glyph unicode="&#x2011;" horiz-adv-x="251" d="M-7 219l16 75h251l-16 -75h-251z" />
<glyph unicode="&#x2012;" horiz-adv-x="251" d="M-7 219l16 75h251l-16 -75h-251z" />
<glyph unicode="&#x2013;" d="M20 222l15 69h506l-14 -69h-507z" />
<glyph unicode="&#x2014;" horiz-adv-x="698" d="M-6 222l15 69h698l-15 -69h-698z" />
<glyph unicode="&#x2018;" horiz-adv-x="302" d="M103 485l134 235h92l-111 -235h-115z" />
<glyph unicode="&#x2019;" horiz-adv-x="302" d="M103 485l111 235h115l-135 -235h-91z" />
<glyph unicode="&#x201a;" horiz-adv-x="302" d="M-27 -127l111 235h115l-135 -235h-91z" />
<glyph unicode="&#x201c;" horiz-adv-x="489" d="M290 484l135 236h91l-111 -236h-115zM103 484l134 236h92l-111 -236h-115z" />
<glyph unicode="&#x201d;" horiz-adv-x="489" d="M290 484l111 236h115l-135 -236h-91zM103 484l111 236h115l-135 -236h-91z" />
<glyph unicode="&#x201e;" horiz-adv-x="489" d="M160 -128l111 235h115l-135 -235h-91zM-27 -128l111 235h115l-135 -235h-91z" />
<glyph unicode="&#x2022;" horiz-adv-x="667" d="M335 200q-58 0 -98.5 40.5t-40.5 97.5q0 58 40.5 98.5t99.5 40.5q56 0 96.5 -41t40.5 -98t-40.5 -97.5t-97.5 -40.5z" />
<glyph unicode="&#x2026;" horiz-adv-x="746" d="M514 0l23 107h109l-23 -107h-109zM266 0l22 107h109l-23 -107h-108zM17 0l23 107h108l-22 -107h-109z" />
<glyph unicode="&#x202f;" horiz-adv-x="180" />
<glyph unicode="&#x2039;" horiz-adv-x="309" d="M137 49l-93 222l168 170h90l-161 -191l78 -201h-82z" />
<glyph unicode="&#x203a;" horiz-adv-x="309" d="M4 49l161 191l-78 201h83l92 -222l-168 -170h-90z" />
<glyph unicode="&#x205f;" horiz-adv-x="225" />
<glyph unicode="&#x20ac;" horiz-adv-x="718" d="M56 267l28 53h65q2 16 5 33h-80l28 53h65q40 127 132 198.5t217 71.5q113 0 181 -57l-50 -92q-49 66 -134 66q-76 0 -139 -49t-100 -138h309l-28 -53h-298l-3 -13q-2 -12 -3 -20h286l-28 -53h-263q0 -90 49 -141.5t134 -51.5q76 0 137 48l-24 -112q-54 -19 -122 -19 q-130 0 -200.5 71t-73.5 205h-90z" />
<glyph unicode="&#x2122;" horiz-adv-x="843" d="M366 287l81 381h103l43 -235q7 -34 9 -71q14 28 29 53l157 253h100l-81 -381h-62l53 249q7 37 17 73q-30 -54 -38 -67l-160 -255h-60l-35 177q-16 77 -26 150l-10 -54q0 -3 -8 -38l-6 -28l-44 -207h-62zM132 287l70 327h-125l11 54h315l-11 -54h-124l-70 -327h-66z" />
<glyph unicode="&#x25fc;" horiz-adv-x="490" d="M0 490h490v-490h-490v490z" />
</font>
</defs>
</svg>
