<?xml version="1.0" standalone="no"?>
<!DOCTYPE svg PUBLIC "-//W3C//DTD SVG 1.1//EN" "http://www.w3.org/Graphics/SVG/1.1/DTD/svg11.dtd" >
<svg xmlns="http://www.w3.org/2000/svg">
<metadata></metadata>
<defs>
<font id="graphein_probook" horiz-adv-x="537" >
<font-face units-per-em="1000" ascent="758" descent="-242" />
<missing-glyph horiz-adv-x="250" />
<glyph unicode="&#xfb01;" horiz-adv-x="603" d="M118 0v418h-115v71h115v21q0 103 26 146q39 67 132 67q31 0 66 -8v-75q-31 6 -46 6q-63 0 -79 -50q-8 -29 -8 -85v-22h133v-71h-133v-418h-91zM437 606v100h99v-100h-99zM443 0v489h91v-489h-91z" />
<glyph unicode="&#xfb02;" horiz-adv-x="603" d="M118 0v418h-115v71h115v21q0 103 26 146q39 67 132 67q31 0 66 -8v-75q-31 6 -46 6q-63 0 -79 -50q-8 -29 -8 -85v-22h133v-71h-133v-418h-91zM443 0v720h91v-720h-91z" />
<glyph unicode="&#xfb03;" horiz-adv-x="924" d="M118 0v418h-115v71h115v21q0 103 26 146q39 67 132 67q31 0 66 -8v-75q-31 6 -46 6q-63 0 -79 -50q-8 -29 -8 -85v-22h230v20q0 101 27 147q40 67 133 67q32 0 67 -8l-6 -75q-25 5 -45 5q-60 0 -76 -50q-8 -29 -8 -84v-22h131v-71h-130v-418h-91v418h-232v-418h-91z M758 606v100h99v-100h-99zM763 0v489h91v-489h-91z" />
<glyph unicode="&#xfb04;" horiz-adv-x="923" d="M118 0v418h-115v71h115v21q0 103 26 146q39 67 132 67q31 0 66 -8v-75q-31 6 -46 6q-63 0 -79 -50q-8 -29 -8 -85v-22h230v20q0 102 27 147q40 67 133 67q34 0 67 -8l-6 -75q-25 5 -45 5q-60 0 -76 -50q-8 -29 -8 -84v-22h131v-71h-130v-418h-91v418h-232v-418h-91z M763 0v720h91v-720h-91z" />
<glyph horiz-adv-x="0" />
<glyph horiz-adv-x="333" />
<glyph unicode=" "  horiz-adv-x="250" />
<glyph unicode="&#x09;" horiz-adv-x="250" />
<glyph unicode="&#xa0;" horiz-adv-x="250" />
<glyph unicode="!" horiz-adv-x="391" d="M178 185l-16 482h110l-12 -482h-82zM168 0v103h104v-103h-104z" />
<glyph unicode="&#x22;" horiz-adv-x="325" d="M199 453l-16 267h100l-16 -267h-68zM57 453l-15 267h99l-15 -267h-69z" />
<glyph unicode="#" d="M78 0l32 202h-89l10 64h86l23 147h-86l11 64h89l30 190h75l-30 -187h129l30 187h75l-30 -190h87l-10 -64h-88l-23 -147h89l-10 -64h-89l-32 -202h-75l32 202h-129l-32 -202h-75zM195 266h129l24 147h-130z" />
<glyph unicode="$" d="M57 24l7 97q79 -40 166 -42v233q-59 16 -112 52q-71 48 -71 129q0 76 49 123.5t138 55.5v84h51v-83q30 1 82.5 -8t79.5 -20l-9 -90q-69 34 -153 40v-204l29 -10q63 -21 107 -54q65 -50 65 -134q0 -81 -55 -134.5t-150 -63.5v-84h-51v83q-74 2 -173 30zM234 409v182 q-43 -9 -66.5 -32t-23.5 -56q0 -42 41 -70q16 -10 49 -24zM281 81q41 5 66 24q42 34 42 80q0 70 -108 108v-212z" />
<glyph unicode="%" horiz-adv-x="813" d="M162 -41l424 749h63l-424 -749h-63zM182 332q-74 0 -116.5 46.5t-42.5 127.5t42 126.5t117 45.5q76 0 116.5 -45t40.5 -128q0 -79 -43 -126t-114 -47zM181 389q39 0 61 30.5t22 84.5q0 56 -21.5 87t-59.5 31q-40 0 -62.5 -31.5t-22.5 -87.5q0 -53 22 -83.5t61 -30.5z M473 163q0 81 42 126.5t117 45.5q76 0 116.5 -45t40.5 -128q0 -79 -43 -126t-115 -47q-74 0 -116 46.5t-42 127.5zM548 161q0 -54 22 -84.5t61 -30.5t61 30.5t22 84.5q0 56 -21.5 87t-59.5 31q-40 0 -62.5 -31t-22.5 -87z" />
<glyph unicode="&#x26;" horiz-adv-x="696" d="M542 0l-53 63q-43 -41 -84.5 -58.5t-97.5 -17.5q-99 0 -163.5 56t-64.5 143q0 88 74 145q26 19 79 41q-33 28 -54 71t-21 81q0 65 48.5 107t124.5 42q75 0 121.5 -39.5t46.5 -102.5q0 -105 -141 -174l132 -160q38 67 42 165h89q-6 -145 -74 -229l113 -133h-117zM308 410 q54 31 77.5 58.5t23.5 58.5q0 30 -22.5 49.5t-56.5 19.5t-57 -21.5t-23 -52.5q0 -40 58 -112zM436 128l-156 187q-42 -24 -54 -35q-46 -37 -46 -93q0 -51 37 -86t91 -35q67 0 128 62z" />
<glyph unicode="'" horiz-adv-x="183" d="M57 453l-15 267h99l-15 -267h-69z" />
<glyph unicode="(" horiz-adv-x="354" d="M306 -204h-86q-158 244 -158 465q0 143 67 296q27 63 88 163h85q-141 -259 -141 -459q0 -201 145 -465z" />
<glyph unicode=")" horiz-adv-x="354" d="M52 -204q141 259 141 459q0 201 -145 465h86q158 -244 158 -465q0 -143 -67 -296q-27 -63 -88 -163h-85z" />
<glyph unicode="*" d="M191 366l-57 41l86 113l-138 40l21 67l135 -50l-5 143h71l-6 -143l136 50l22 -67l-137 -40l89 -112l-58 -43l-80 119z" />
<glyph unicode="+" d="M232 117v187h-193v73h193v186h73v-186h194v-73h-194v-187h-73z" />
<glyph unicode="," horiz-adv-x="267" d="M21 -129l60 236h107l-83 -236h-84z" />
<glyph unicode="-" horiz-adv-x="251" d="M0 209v75h251v-75h-251z" />
<glyph unicode="." horiz-adv-x="267" d="M80 0v107h107v-107h-107z" />
<glyph unicode="/" horiz-adv-x="435" d="M-29 -204l338 924h77l-335 -924h-80z" />
<glyph unicode="0" d="M77 119q-35 85 -35 218q0 132 35 214q56 127 195 127q59 0 108.5 -32t74.5 -85q40 -86 40 -234q0 -135 -39 -220q-25 -55 -75.5 -87.5t-112.5 -32.5q-65 0 -115.5 35t-75.5 97zM179 122q33 -57 90 -57q129 0 129 268q0 126 -33.5 196.5t-92.5 70.5q-86 0 -115 -109 q-18 -69 -18 -157q0 -140 40 -212z" />
<glyph unicode="1" d="M261 0v563q-6 -8 -15 -16l-22 -21l-67 -58l-53 63l163 136h89v-667h-95z" />
<glyph unicode="2" d="M53 0v101q161 139 234.5 231.5t73.5 157.5q0 47 -37 77t-94 30q-72 0 -151 -48l-10 87q97 39 176 39q98 0 158.5 -50.5t60.5 -132.5q0 -63 -39 -128t-134 -162q-79 -79 -145 -127q23 4 71 4h261v-79h-425z" />
<glyph unicode="3" d="M53 18l4 88q90 -37 163 -37q65 0 106.5 33t41.5 84q0 84 -97 111q-34 10 -98 10q-16 0 -31 -1v81q65 0 109 8q115 23 115 104q0 44 -37.5 71.5t-96.5 27.5q-73 0 -152 -33l-6 82q80 29 163 29q101 0 156 -39q70 -50 70 -137q0 -62 -44.5 -104.5t-115.5 -48.5 q75 -4 121.5 -50.5t46.5 -118.5q0 -85 -66.5 -136t-178.5 -51q-86 0 -173 27z" />
<glyph unicode="4" d="M21 146v79l270 442h137v-442h88v-79h-88v-146h-95v146h-312zM116 225h22h195v265q0 44 11 145q-16 -49 -64.5 -135.5t-163.5 -274.5z" />
<glyph unicode="5" d="M83 16l3 88q75 -33 136 -33q70 0 114 37.5t44 97.5q0 61 -45.5 98t-120.5 37q-57 0 -126 -23l5 349h369v-79h-281l-2 -128q0 -12 -3 -51q34 10 75 10q104 0 168 -57.5t64 -150.5q0 -99 -71 -158.5t-189 -59.5q-67 0 -140 23z" />
<glyph unicode="6" d="M144 366v-16q20 34 61 54t90 20q87 0 143 -60t56 -153q0 -98 -60.5 -160.5t-155.5 -62.5q-110 0 -168 83t-58 241q0 179 69 272.5t201 93.5q66 0 138 -22l-12 -85q-61 29 -122 29q-45 0 -83.5 -23t-61.5 -63q-16 -27 -26.5 -69.5t-10.5 -78.5zM155 212q0 -62 35 -104 t87 -42t86 39.5t34 100.5q0 60 -34 100t-86 40q-53 0 -87.5 -37.5t-34.5 -96.5z" />
<glyph unicode="7" d="M121 0l201 458q39 86 63 131l-6 -1h-19h-31h-278v79h426v-79l-250 -588h-106z" />
<glyph unicode="8" d="M38 176q0 126 146 178q-58 12 -94.5 56t-36.5 101q0 76 58.5 121.5t156.5 45.5q93 0 151 -45t58 -118q0 -50 -32.5 -91t-91.5 -66q71 -23 108.5 -69.5t37.5 -110.5q0 -85 -62.5 -137.5t-163.5 -52.5q-104 0 -169.5 52.5t-65.5 135.5zM288 387q22 14 33 24q59 48 59 103 q0 38 -33.5 64.5t-81.5 26.5t-81.5 -26t-33.5 -64q0 -70 138 -128zM141 183q0 -51 38 -84t97 -33q55 0 90.5 29.5t35.5 76.5q0 63 -71 107q-26 17 -79 36q-111 -54 -111 -132z" />
<glyph unicode="9" d="M73 11l12 85q62 -29 121 -29q105 0 155 107q23 53 29 141q-54 -72 -150 -72q-89 0 -145 60.5t-56 155.5q0 97 60 159t153 62q111 0 169.5 -81.5t58.5 -236.5q0 -184 -69.5 -278.5t-204.5 -94.5q-62 0 -133 22zM257 321q52 0 86 38t34 96q0 61 -34.5 104t-84.5 43 q-53 0 -87.5 -39t-34.5 -100q0 -62 34.5 -102t86.5 -40z" />
<glyph unicode=":" horiz-adv-x="267" d="M80 382v107h107v-107h-107zM80 0v107h107v-107h-107z" />
<glyph unicode=";" horiz-adv-x="267" d="M71 382v107h107v-107h-107zM20 -129l60 236h107l-82 -236h-85z" />
<glyph unicode="&#x3c;" horiz-adv-x="500" d="M33 299v77l433 209v-90l-337 -157l337 -158v-89z" />
<glyph unicode="=" d="M39 374v73h460v-73h-460zM39 234v73h460v-73h-460z" />
<glyph unicode="&#x3e;" horiz-adv-x="500" d="M34 91v89l337 158l-337 157v89l433 -208v-77z" />
<glyph unicode="?" horiz-adv-x="509" d="M226 186q0 68 15 101t74 100q50 54 50 108q0 44 -32 71t-85 27q-70 0 -144 -37l-7 93q86 29 162 29q91 0 148 -48t57 -124q0 -43 -19.5 -81.5t-73.5 -101.5q-38 -44 -48.5 -67.5t-10.5 -69.5h-86zM219 0v104h102v-104h-102z" />
<glyph unicode="@" horiz-adv-x="763" d="M607 -1l16 -58q-99 -42 -218 -42q-157 0 -255 95q-48 47 -75 113t-27 136q0 147 101.5 248t248.5 101q137 0 227 -84.5t90 -211.5q0 -94 -50 -165t-115 -71q-29 0 -49 17t-25 46q-45 -69 -125 -69q-61 0 -100.5 45.5t-39.5 115.5q0 83 51.5 142.5t123.5 59.5 q77 0 106 -67l11 56h64l-40 -205q-6 -32 -6 -47q0 -18 9 -29.5t23 -11.5q40 0 72.5 56t32.5 126q0 104 -72.5 171.5t-184.5 67.5q-122 0 -206 -84.5t-84 -207.5t79 -204q77 -81 212 -81q112 0 205 42zM283 216q0 -43 23.5 -70t60.5 -27q43 0 74 41t31 99q0 41 -21.5 65.5 t-57.5 24.5q-44 0 -77 -39.5t-33 -93.5z" />
<glyph unicode="A" horiz-adv-x="683" d="M5 0l284 667h100l289 -667h-107l-70 169h-324l-69 -169h-103zM207 250h261l-77 186q-46 109 -54 149q-12 -40 -56 -151z" />
<glyph unicode="B" horiz-adv-x="579" d="M86 0v667h158q76 0 111 -6t65 -23q84 -49 84 -142q0 -81 -61 -124q-29 -21 -81 -33q63 -9 96 -31q66 -45 66 -129q0 -49 -24 -89t-67 -63q-49 -27 -157 -27h-190zM181 383h68q68 0 97 11t46 35.5t17 54.5q0 33 -19.5 57.5t-54.5 35.5q-30 9 -105 9h-49v-203zM181 81h74 q78 0 111 16q60 28 60 91q0 37 -22.5 65.5t-61.5 41.5q-31 10 -111 10h-50v-224z" />
<glyph unicode="C" horiz-adv-x="581" d="M550 110l7 -92q-69 -23 -148 -23q-146 0 -236 70q-125 96 -125 272q0 148 97.5 241.5t252.5 93.5q88 0 152 -30l-8 -90q-69 39 -139 39q-112 0 -182.5 -70.5t-70.5 -181.5q0 -112 73 -185.5t184 -73.5q67 0 143 30z" />
<glyph unicode="D" horiz-adv-x="689" d="M86 0v667h138q118 0 178 -16q107 -29 173.5 -117t66.5 -203q0 -109 -60 -192t-164 -117q-69 -22 -179 -22h-153zM181 81h50q111 0 168 24q66 29 103.5 89.5t37.5 139.5q0 80 -43.5 145t-114.5 90q-50 17 -150 17h-51v-505z" />
<glyph unicode="E" horiz-adv-x="527" d="M86 0v667h371v-81h-276v-197h256v-81h-256v-227h284v-81h-379z" />
<glyph unicode="F" horiz-adv-x="482" d="M86 0v667h354v-81h-259v-200h249v-81h-249v-305h-95z" />
<glyph unicode="G" horiz-adv-x="687" d="M607 365v-339q-92 -31 -192 -31q-169 0 -268 93t-99 251q0 152 99 242.5t265 90.5q100 0 183 -33l-7 -91q-77 43 -170 43q-118 0 -193 -70.5t-75 -182.5q0 -118 75 -190t197 -72q42 0 90 15v193h-143v81h238z" />
<glyph unicode="H" horiz-adv-x="685" d="M86 0v667h95v-280h323v280h95v-667h-95v306h-323v-306h-95z" />
<glyph unicode="I" horiz-adv-x="280" d="M93 0v667h95v-667h-95z" />
<glyph unicode="J" horiz-adv-x="368" d="M19 3v83q35 -14 70 -14q67 0 89 59q10 24 10 106v430h95v-454q0 -71 -3.5 -93.5t-17.5 -48.5q-45 -80 -159 -80q-29 0 -84 12z" />
<glyph unicode="K" horiz-adv-x="630" d="M86 0v667h95v-223q0 -57 -2 -80q42 48 55 61l233 242h128l-314 -316l341 -351h-138l-243 259q-6 6 -61 71q1 -27 1 -68v-262h-95z" />
<glyph unicode="L" horiz-adv-x="480" d="M86 0v667h95v-586h282v-81h-377z" />
<glyph unicode="M" horiz-adv-x="905" d="M86 0v667h157l131 -335l58 -151q16 -50 21 -73q15 56 80 226l127 333h159v-667h-95v381q0 32 1.5 116t1.5 112v14l-6 -17l-16 -52q-9 -28 -44 -124l-20 -57q-4 -12 -11 -31l-8 -18l-125 -324h-92l-126 324q-71 185 -102 281l-6 18v-15q5 -55 6 -91q0 -13 2 -77 q2 -60 2 -66v-374h-95z" />
<glyph unicode="N" horiz-adv-x="705" d="M86 0v667h130l227 -393q67 -117 91 -191q-10 97 -10 263v321h95v-667h-123l-211 362q-91 156 -112 229q8 -91 8 -251v-340h-95z" />
<glyph unicode="O" horiz-adv-x="741" d="M137 81q-41 45 -65 112.5t-24 138.5q0 76 25 145.5t69 116.5q81 86 233 86q145 0 231.5 -94.5t86.5 -252.5q0 -149 -80 -246q-83 -100 -241 -100q-150 0 -235 94zM150 334q0 -120 62 -196t159 -76t158.5 75.5t61.5 193.5q0 121 -60.5 197.5t-156.5 76.5 q-102 0 -163 -73.5t-61 -197.5z" />
<glyph unicode="P" horiz-adv-x="531" d="M87 0v667h132q119 0 169 -18q56 -20 88.5 -68.5t32.5 -112.5q0 -63 -31.5 -111t-87.5 -70q-49 -20 -155 -20h-53v-267h-95zM182 348h52q83 0 117 19q56 32 56 101q0 40 -22.5 68.5t-63.5 40.5q-32 9 -99 9h-40v-238z" />
<glyph unicode="Q" horiz-adv-x="741" d="M551 -129l-127 119q-36 -3 -51 -3q-148 0 -236.5 94.5t-88.5 251.5q0 158 88 252.5t235 94.5q162 0 246 -107q76 -94 76 -242q0 -112 -46 -194t-131 -122l160 -144h-125zM150 337q0 -122 61.5 -198.5t158.5 -76.5q98 0 159.5 75t61.5 194q0 121 -60.5 197.5t-156.5 76.5 q-101 0 -162.5 -73.5t-61.5 -194.5z" />
<glyph unicode="R" horiz-adv-x="583" d="M86 0v667h161q100 0 150 -17q51 -17 81 -60t30 -99q0 -76 -55 -122q-31 -25 -87 -35q30 -13 47 -32t36 -59l113 -243h-110l-86 200q-27 62 -50 79.5t-80 17.5h-55v-297h-95zM181 379h59q71 0 104 12q66 24 66 92q0 32 -17 57t-47 35q-29 11 -96 11h-69v-207z" />
<glyph unicode="S" horiz-adv-x="474" d="M54 14l10 89q73 -35 131 -35q62 0 99.5 31t37.5 82q0 37 -24.5 64.5t-78.5 52.5l-37 17q-79 36 -114 78.5t-35 104.5q0 82 58 132t152 50q74 0 146 -24l-12 -84q-72 27 -125 27t-86.5 -25.5t-33.5 -66.5q0 -34 23 -58.5t85 -55.5l36 -18q84 -42 116 -82.5t32 -104.5 q0 -90 -62.5 -145.5t-164.5 -55.5q-83 0 -153 27z" />
<glyph unicode="T" horiz-adv-x="529" d="M219 0v586h-213v81h517v-81h-209v-586h-95z" />
<glyph unicode="U" horiz-adv-x="688" d="M602 667v-376q0 -76 -8.5 -119t-31.5 -78q-67 -107 -217 -107q-83 0 -144 35.5t-89 101.5q-26 58 -26 180v363h95v-349q0 -121 24 -169q19 -38 57 -59.5t86 -21.5q110 0 145 101q14 39 14 144v354h95z" />
<glyph unicode="V" horiz-adv-x="633" d="M260 0l-255 667h105l163 -440q32 -90 47 -149q14 64 45 149l163 440h100l-252 -667h-116z" />
<glyph unicode="W" horiz-adv-x="954" d="M210 0l-205 667h104l115 -390q36 -125 47 -184q5 36 42 187l96 387h137l102 -390q14 -55 24 -98t16 -64l6 -22q13 77 44 184l114 390h98l-200 -667h-121l-116 438q-22 82 -37 152q-26 -122 -33 -152l-110 -438h-123z" />
<glyph unicode="X" horiz-adv-x="635" d="M6 0l246 350l-227 317h115l177 -252l176 252h110l-224 -317l250 -350h-121l-198 285l-190 -285h-114z" />
<glyph unicode="Y" horiz-adv-x="629" d="M269 0v280l-264 387h118l165 -250q22 -32 29 -50q8 18 27 47l167 253h113l-260 -384v-283h-95z" />
<glyph unicode="Z" horiz-adv-x="534" d="M30 0v81l271 393q60 88 85 114q-49 -2 -93 -2h-251v81h447v-88l-286 -411q-4 -6 -12.5 -17.5t-9.5 -13.5q-12 -16 -18 -25l-13 -17q-1 -1 -11 -17q24 3 74 3h282v-81h-465z" />
<glyph unicode="[" horiz-adv-x="355" d="M95 -204v924h186v-65h-100v-795h100v-64h-186z" />
<glyph unicode="\" horiz-adv-x="435" d="M384 -204l-335 924h77l338 -924h-80z" />
<glyph unicode="]" horiz-adv-x="355" d="M74 -139h100v795h-100v64h186v-924h-186v65z" />
<glyph unicode="^" horiz-adv-x="500" d="M19 356l172 313h118l172 -313h-96l-135 242l-135 -242h-96z" />
<glyph unicode="_" horiz-adv-x="500" d="M0 -59h500v-82h-500v82z" />
<glyph unicode="`" horiz-adv-x="500" d="M242 571l-118 137h100l82 -137h-64z" />
<glyph unicode="a" horiz-adv-x="529" d="M460 0h-83q-1 19 -1 39q0 15 1 45q-54 -91 -164 -91q-77 0 -123.5 40t-46.5 107q0 77 66.5 119t189.5 42q21 0 68 -3q-1 123 -122 123q-73 0 -144 -48l-5 80q78 45 164 45q132 0 175 -90q20 -41 20 -140v-102q0 -103 5 -166zM139 141q0 -34 26.5 -55t67.5 -21 q40 0 72.5 19t48.5 52q15 31 15 95q-25 3 -49 3q-181 0 -181 -93z" />
<glyph unicode="b" horiz-adv-x="577" d="M71 0v720h91v-258q0 -23 -1 -40q0 -1 -0.5 -3.5t-1 -6.5t-0.5 -7q18 42 64.5 67.5t104.5 25.5q95 0 152.5 -68t57.5 -181q0 -116 -57.5 -186t-154.5 -70q-56 0 -100.5 24t-67.5 67v-84h-87zM164 244q0 -74 40.5 -124t101.5 -50q59 0 97.5 49.5t38.5 125.5q0 77 -37 126.5 t-95 49.5q-64 0 -105 -50t-41 -127z" />
<glyph unicode="c" horiz-adv-x="427" d="M400 102l7 -83q-51 -25 -120 -25q-112 0 -180 68.5t-68 181.5q0 104 60 171q34 37 83 58.5t102 21.5q60 0 111 -20l-6 -80q-39 23 -89 23q-73 0 -119 -48t-46 -122q0 -79 45.5 -128t117.5 -49q52 0 102 31z" />
<glyph unicode="d" horiz-adv-x="580" d="M422 0v82q-62 -89 -169 -89q-98 0 -156 67.5t-58 182.5q0 113 59.5 184t154.5 71q102 0 162 -85l-2 43q0 5 -0.5 13t-0.5 11v240h91v-492q0 -105 7 -228h-88zM135 243q0 -77 38 -125t99 -48t101.5 49.5t40.5 124.5q0 74 -40 125.5t-98 51.5q-62 0 -101.5 -49.5 t-39.5 -128.5z" />
<glyph unicode="e" horiz-adv-x="522" d="M446 110v-87q-79 -36 -157 -36q-115 0 -182.5 71t-67.5 191q0 114 63.5 183.5t167.5 69.5q101 0 157 -69.5t56 -195.5q0 -9 -1 -16h-352q9 -73 53 -115t111 -42q76 0 152 46zM131 292h261q-8 59 -25 84q-35 54 -100 54q-54 0 -90.5 -37.5t-45.5 -100.5z" />
<glyph unicode="f" horiz-adv-x="353" d="M118 0v418h-115v71h115v21q0 103 26 146q39 67 132 67q31 0 66 -8v-75q-31 6 -46 6q-63 0 -79 -50q-8 -29 -8 -85v-22h133v-71h-133v-418h-91z" />
<glyph unicode="g" horiz-adv-x="566" d="M87 -89q91 -45 174 -45q104 0 138 74q16 33 17 100q0 25 1 41q-56 -82 -163 -82q-97 0 -156 67t-59 176q0 114 59 184.5t154 70.5q57 0 101 -24.5t64 -67.5q1 6 1 11q-1 9 -1 29v45h85v-405q0 -121 -16 -170q-19 -61 -77 -93.5t-146 -32.5q-91 0 -185 34zM135 243 q0 -73 38 -120t97 -47q62 0 102.5 48t40.5 123q0 72 -40 122.5t-98 50.5q-62 0 -101 -49t-39 -128z" />
<glyph unicode="h" horiz-adv-x="567" d="M70 0v720h91v-233q0 -53 -3 -77q52 88 163 88q124 0 165 -105q18 -47 18 -136v-257h-91v212q0 96 -9 128q-21 81 -102 81q-45 0 -80.5 -27t-49.5 -73q-11 -34 -11 -127v-194h-91z" />
<glyph unicode="i" horiz-adv-x="229" d="M63 606v100h99v-100h-99zM69 0v489h91v-489h-91z" />
<glyph unicode="j" horiz-adv-x="248" d="M81 606v100h99v-100h-99zM85 10v479h91v-479q0 -64 -2 -85.5t-10 -46.5q-13 -40 -47.5 -63t-81.5 -23q-19 0 -53 5v75q18 -2 24 -2q55 0 71 43q6 15 7 28.5t1 68.5z" />
<glyph unicode="k" horiz-adv-x="518" d="M70 0v720h91v-345q0 -27 -0.5 -46t-1 -25.5t-1 -11t-0.5 -7.5q16 20 42 45l159 159h122l-228 -216l259 -273h-128l-166 180q-7 8 -26 32.5t-34 39.5q3 -24 3 -74v-178h-91z" />
<glyph unicode="l" horiz-adv-x="229" d="M69 0v720h91v-720h-91z" />
<glyph unicode="m" horiz-adv-x="844" d="M75 0v276q0 93 -6 213h84l5 -79q19 41 60 64.5t94 23.5q111 0 144 -98q49 98 161 98q56 0 95.5 -27.5t55.5 -78.5q13 -42 13 -135v-257h-91v240q0 85 -8 113q-19 68 -84 68q-40 0 -71.5 -28t-43.5 -73q-9 -31 -9 -113v-207h-91v251q0 80 -7 103q-19 67 -81 67 q-37 0 -68.5 -24t-46.5 -64q-14 -37 -14 -117v-216h-91z" />
<glyph unicode="n" horiz-adv-x="571" d="M75 0v242q0 125 -6 247h85l4 -77q58 86 168 86q64 0 108 -31t61 -88q13 -40 13 -151v-228h-91v220q0 92 -8 121q-22 80 -103 80q-45 0 -80 -27.5t-49 -73.5q-11 -38 -11 -141v-179h-91z" />
<glyph unicode="o" horiz-adv-x="579" d="M39 243q0 112 70.5 185.5t178.5 73.5q112 0 182 -73t70 -189q0 -110 -71 -181.5t-181 -71.5q-107 0 -178 73t-71 183zM135 244q0 -82 43.5 -133.5t111.5 -51.5q67 0 110.5 51.5t43.5 129.5q0 84 -43 137t-111 53t-111.5 -52.5t-43.5 -133.5z" />
<glyph unicode="p" horiz-adv-x="581" d="M166 -5v-199h-91v479q0 111 -6 214h86l6 -86q57 95 170 95q94 0 152 -68t58 -179q0 -116 -58.5 -187t-153.5 -71q-116 0 -168 96l1 -16q4 -56 4 -78zM166 244q0 -74 41 -124t102 -50q58 0 97 50t39 125q0 78 -36.5 127t-95.5 49q-64 0 -105.5 -50t-41.5 -127z" />
<glyph unicode="q" horiz-adv-x="578" d="M415 -204v212q0 51 5 77q-55 -92 -169 -92q-98 0 -155.5 67.5t-57.5 181.5q0 116 59.5 186t156.5 70q58 0 102 -26.5t66 -74.5q-3 14 -3 31q0 26 -2 52q0 4 1 9h88v-693h-91zM134 244q0 -77 38.5 -125.5t99.5 -48.5t101.5 49.5t40.5 124.5t-39.5 126t-97.5 51 q-63 0 -103 -50t-40 -127z" />
<glyph unicode="r" horiz-adv-x="360" d="M75 0v298q0 55 -6 191h84l5 -87q43 94 139 94q25 0 49 -7v-83q-23 9 -43 9q-44 0 -77.5 -27t-48.5 -75q-11 -33 -11 -121v-192h-91z" />
<glyph unicode="s" horiz-adv-x="378" d="M41 19v81q67 -32 115 -32q41 0 67.5 18t26.5 46t-24 46q-11 8 -41 23l-38 19q-53 27 -76 48q-36 36 -36 88q0 64 46.5 103t123.5 39q54 0 114 -20l-7 -77q-50 25 -99 25q-37 0 -59.5 -16.5t-22.5 -44.5q0 -38 68 -71l37 -18q60 -29 85 -59.5t25 -76.5q0 -67 -49 -108 t-129 -41q-67 0 -127 28z" />
<glyph unicode="t" horiz-adv-x="367" d="M340 86v-78q-46 -14 -84 -14q-93 0 -127 64q-19 37 -19 139v221h-113v71h113v110l91 31v-141h129v-71h-129v-194q0 -72 5 -96q5 -27 25 -42t50 -15q26 0 59 15z" />
<glyph unicode="u" horiz-adv-x="566" d="M413 0l-5 76q-59 -83 -164 -83q-54 0 -95.5 23t-61.5 65q-24 49 -24 149v259h91v-227q0 -97 13 -131q25 -66 95 -66q78 0 117 77q13 27 16.5 50t3.5 82v215h91v-308q0 -75 6 -181h-83z" />
<glyph unicode="v" horiz-adv-x="472" d="M186 0l-180 489h98l100 -282q32 -88 36 -122q4 26 9 41l12 37l115 326h90l-176 -489h-104z" />
<glyph unicode="w" horiz-adv-x="792" d="M167 0l-161 489h99l80 -263q31 -104 37 -144l4 17q8 34 24 85l96 305h106l89 -269q20 -59 38 -138q8 51 35 141l82 266h90l-156 -489h-105l-84 251q-30 91 -45 160q-18 -77 -44 -158l-81 -253h-104z" />
<glyph unicode="x" horiz-adv-x="475" d="M6 0l175 257l-162 232h111l80 -121q24 -37 32 -61q6 19 33 62l76 120h100l-156 -232l174 -257h-112l-91 141q-24 38 -32 59q-4 -13 -11 -27l-19 -30l-92 -143h-106z" />
<glyph unicode="y" horiz-adv-x="471" d="M41 -126q23 -9 43 -9q41 0 65 27q30 36 45 88l-188 509h98l109 -309q24 -69 26 -101q5 29 7 37l14 41l115 332h90l-174 -484q-39 -111 -70 -150q-46 -62 -129 -62q-21 0 -56 7z" />
<glyph unicode="z" horiz-adv-x="475" d="M36 0v74l231 284q37 44 46 53l9 9q-30 -2 -70 -2h-205v71h375v-76l-236 -288q-23 -27 -39 -44l-12 -15q19 5 76 5h222v-71h-397z" />
<glyph unicode="{" horiz-adv-x="493" d="M193 -58v190q0 44 -12.5 65.5t-43.5 28.5v64q56 15 56 92v199q0 81 44 113q20 15 45 20.5t76 5.5h16v-65q-59 0 -77 -15t-18 -67v-196q0 -49 -12.5 -74t-45.5 -45q32 -20 45 -46.5t13 -74.5v-193q0 -53 18 -68.5t77 -14.5v-65h-17h-27q-70 0 -103.5 35.5t-33.5 110.5z " />
<glyph unicode="|" horiz-adv-x="500" d="M205 -167v834h90v-834h-90z" />
<glyph unicode="}" horiz-adv-x="493" d="M119 -139q59 0 77 15t18 67v196q0 49 12.5 74t45.5 45q-32 20 -45 46.5t-13 74.5v193q0 53 -18 68.5t-77 14.5v65h17h27q70 0 103.5 -35.5t33.5 -110.5v-190q0 -44 12.5 -65.5t43.5 -28.5v-64q-56 -15 -56 -92v-199q0 -81 -44 -113q-20 -15 -45 -20.5t-76 -5.5h-16v65z " />
<glyph unicode="~" horiz-adv-x="667" d="M144 576l-52 34q23 48 37 66q41 56 104 56q36 0 110 -32q67 -30 94 -30t44.5 13.5t40.5 50.5l53 -31q-30 -61 -61 -87q-42 -32 -89 -32q-32 0 -141 46q-33 15 -58 15t-43.5 -15.5t-38.5 -53.5z" />
<glyph unicode="&#xa1;" horiz-adv-x="391" d="M123 386v103h103v-103h-103zM118 -178l16 481h82l12 -481h-110z" />
<glyph unicode="&#xa2;" d="M312 10v80q-103 10 -162 77t-59 172q0 103 60 170.5t161 78.5v77h51v-77q53 -6 85 -18l-6 -80q-32 18 -79 21v-344q49 4 89 29l8 -82q-44 -21 -97 -24v-80h-51zM312 171v336q-59 -17 -91.5 -59.5t-32.5 -105.5q0 -66 32.5 -111t91.5 -60z" />
<glyph unicode="&#xa3;" d="M61 0v79h89v245h-80v53h79v23q0 76 8.5 115t32.5 73q28 40 76.5 62t107.5 22t117 -19l-8 -83q-59 24 -99 24q-48 0 -83 -24.5t-48 -67.5q-11 -36 -11 -107v-18h155v-53h-152v-245h235v-79h-419z" />
<glyph unicode="&#xa4;" d="M76 62l-42 42l77 78q-38 55 -38 113t39 112l-80 78l43 43l79 -78q56 39 115 39q61 0 114 -38l79 77l42 -43l-78 -77q39 -56 39 -113q0 -59 -38 -112l79 -78l-43 -43l-78 78q-54 -39 -115 -39q-57 0 -115 38zM269 170q52 0 88.5 36.5t36.5 88.5q0 51 -36.5 88t-86.5 37 q-53 0 -90 -36.5t-37 -88.5t36.5 -88.5t88.5 -36.5z" />
<glyph unicode="&#xa5;" d="M224 0v246h-178v53h167l-46 81h-131v53h101l-132 234h118l128 -251q15 -29 21 -49q8 23 19 47l128 253h114l-130 -234h99v-53h-129l-45 -81h164v-53h-173v-246h-95z" />
<glyph unicode="&#xa6;" horiz-adv-x="500" d="M205 330v337h90v-337h-90zM205 153h90v-320h-90v320z" />
<glyph unicode="&#xa7;" d="M64 -99q84 -35 160 -35q71 0 112 27t41 75q0 37 -24.5 60t-92.5 51l-58 24q-71 29 -99 55q-50 47 -50 115q0 54 31 97q20 29 68 47q-44 23 -62 48q-29 38 -29 90q0 77 63.5 125.5t163.5 48.5q83 0 152 -21l-9 -83q-74 28 -143 28q-64 0 -102 -26t-38 -69q0 -35 25 -59 t94 -52l70 -29q67 -28 98 -55q49 -43 49 -111q0 -93 -100 -144q47 -23 67.5 -54.5t20.5 -78.5q0 -85 -69 -136.5t-184 -51.5q-88 0 -163 26zM282 353l-98 43q-57 -50 -57 -104q0 -52 55 -85q31 -19 78 -37l91 -36q54 46 54 100q0 39 -24.5 63t-98.5 56z" />
<glyph unicode="&#xa8;" horiz-adv-x="500" d="M297 587v97h87v-97h-87zM116 587v97h87v-97h-87z" />
<glyph unicode="&#xa9;" horiz-adv-x="785" d="M48 333q0 146 101.5 246.5t248.5 100.5q139 0 239 -102t100 -244q0 -144 -100.5 -245.5t-243.5 -101.5q-142 0 -243.5 102t-101.5 244zM102 333q0 -122 85.5 -209.5t205.5 -87.5t205 87t85 210q0 122 -84.5 210t-201.5 88q-124 0 -209.5 -86.5t-85.5 -211.5zM512 214 l4 -60q-45 -14 -92 -14q-101 0 -161 53t-60 142q0 85 60 138.5t154 53.5q54 0 96 -18l-6 -59q-45 24 -87 24q-65 0 -106.5 -38t-41.5 -99t43 -101t108 -40q41 0 89 18z" />
<glyph unicode="&#xaa;" horiz-adv-x="355" d="M252 404v14q-37 -44 -99 -44q-50 0 -80.5 25t-30.5 66q0 47 43 73t121 26q20 0 40 -2q-1 64 -73 64q-47 0 -94 -31l-3 57q52 28 107 28q92 0 117 -62q10 -26 10 -81v-17q-1 -11 -1 -35q0 -68 4 -107h-60q-1 14 -1 26zM166 425q52 0 73 40q8 16 8 50q-10 2 -26 2 q-111 0 -111 -50q0 -19 15.5 -30.5t40.5 -11.5zM52 280v47h261v-47h-261z" />
<glyph unicode="&#xab;" horiz-adv-x="535" d="M247 247l134 194h87l-124 -194l126 -198h-85zM191 49l-138 198l134 194h87l-124 -194l126 -198h-85z" />
<glyph unicode="&#xac;" horiz-adv-x="500" d="M33 183v84h433v-267h-90v183h-343z" />
<glyph unicode="&#xad;" horiz-adv-x="251" d="M0 209v75h251v-75h-251z" />
<glyph unicode="&#xae;" horiz-adv-x="785" d="M48 333q0 146 101.5 246.5t248.5 100.5q139 0 239 -102t100 -244q0 -144 -100.5 -245.5t-243.5 -101.5q-142 0 -243.5 102t-101.5 244zM102 333q0 -122 85.5 -209.5t205.5 -87.5t205 87t85 210q0 122 -84.5 210t-201.5 88q-124 0 -209.5 -86.5t-85.5 -211.5zM265 143v381 h100q61 0 92 -10t50 -35.5t19 -57.5q0 -70 -76 -89q23 -12 40 -47l71 -142h-75l-52 114q-16 34 -29 43t-46 9h-29v-166h-65zM330 363h32q52 0 74.5 12.5t22.5 41.5q0 28 -21.5 40.5t-70.5 12.5h-37v-107z" />
<glyph unicode="&#xaf;" horiz-adv-x="500" d="M108 605v57h284v-57h-284z" />
<glyph unicode="&#xb0;" horiz-adv-x="375" d="M188 444q-61 0 -103.5 42t-42.5 103q0 57 43 98.5t102 41.5q61 0 103.5 -41.5t42.5 -100.5t-42.5 -101t-102.5 -42zM188 499q36 0 62 26t26 61q0 37 -26 62.5t-63 25.5q-36 0 -62 -25.5t-26 -60.5q0 -38 25.5 -63.5t63.5 -25.5z" />
<glyph unicode="&#xb1;" d="M232 177v187h-193v73h193v186h73v-186h194v-73h-194v-187h-73zM39 57v73h460v-73h-460z" />
<glyph unicode="&#xb2;" horiz-adv-x="248" d="M27 400v46q133 106 133 154q0 17 -15 28t-38 11q-30 0 -68 -22l-6 44q44 17 81 17q44 0 71 -21.5t27 -56.5q0 -43 -64 -107q-26 -26 -62 -54h132v-39h-191z" />
<glyph unicode="&#xb3;" horiz-adv-x="248" d="M27 409l2 44q43 -17 73 -17q26 0 43 12t17 31q0 44 -80 44h-17v40h15q81 0 81 41q0 16 -15.5 26t-38.5 10q-30 0 -68 -16l-4 42q39 13 74 13q48 0 75 -19.5t27 -54.5q0 -42 -49 -62q52 -21 52 -67q0 -36 -29.5 -57.5t-79.5 -21.5q-42 0 -78 12z" />
<glyph unicode="&#xb4;" horiz-adv-x="500" d="M194 571l82 137h100l-118 -137h-64z" />
<glyph unicode="&#xb5;" horiz-adv-x="500" d="M130 58v-227h-90v649h90v-266q0 -52 7.5 -79.5t28.5 -46.5q32 -32 82 -32q54 0 89 43q32 41 32 122v259h90v-480h-90v77q-22 -47 -51 -68t-72 -21q-73 0 -116 70z" />
<glyph unicode="&#xb6;" d="M208 -204v501q-87 0 -136 48t-49 134q0 52 21 94t58 65q48 29 134 29h266v-70h-51v-801h-77v801h-89v-801h-77z" />
<glyph unicode="&#xb7;" horiz-adv-x="267" d="M80 193v107h107v-107h-107z" />
<glyph unicode="&#xb8;" horiz-adv-x="500" d="M185 -77l48 77h40l-33 -54q24 5 36 5q34 0 55 -19t21 -49q0 -35 -32 -59t-80 -24q-49 0 -92 20l17 34q31 -14 65 -14q23 0 37.5 10t14.5 27q0 16 -13 26.5t-33 10.5q-7 0 -35 -7z" />
<glyph unicode="&#xb9;" horiz-adv-x="248" d="M116 400v166v14v17v23q-4 -4 -10 -8l-31 -26l-29 31l75 58h44v-275h-49z" />
<glyph unicode="&#xba;" horiz-adv-x="407" d="M203 368q-70 0 -115.5 44t-45.5 111q0 68 45.5 112.5t115.5 44.5q72 0 117 -44t45 -115q0 -66 -46 -109.5t-116 -43.5zM204 418q40 0 66.5 29.5t26.5 74.5q0 47 -26 77.5t-67 30.5t-67.5 -30t-26.5 -77q0 -46 26.5 -75.5t67.5 -29.5zM52 280v47h303v-47h-303z" />
<glyph unicode="&#xbb;" horiz-adv-x="535" d="M258 49l127 198l-124 194h86l134 -194l-137 -198h-86zM64 49l126 198l-124 194h87l134 -194l-138 -198h-85z" />
<glyph unicode="&#xbc;" horiz-adv-x="862" d="M219 -32l364 731h59l-365 -731h-58zM163 265v242v68l-50 -44l-41 50l101 86h61v-402h-71zM536 84v56l156 261h91v-254h50v-63h-50v-84h-71v84h-176zM615 147h97l2 143q0 5 0.5 13.5t1.5 19.5q0 -1 -24.5 -44t-49.5 -86z" />
<glyph unicode="&#xbd;" horiz-adv-x="862" d="M219 -32l364 731h59l-365 -731h-58zM163 265v242v68l-50 -44l-41 50l101 86h61v-402h-71zM553 0v71q174 151 174 219q0 22 -18.5 37t-46.5 15q-40 0 -93 -32l-8 70q62 26 110 26q58 0 95 -32t37 -82q0 -89 -160 -229h11h157v-63h-258z" />
<glyph unicode="&#xbe;" horiz-adv-x="862" d="M219 -32l364 731h59l-365 -731h-58zM46 279l4 70q59 -26 98 -26q33 0 54 16.5t21 42.5q0 61 -100 61q-12 0 -27 -2v65h22q104 0 104 56q0 22 -18.5 35.5t-47.5 13.5q-41 0 -94 -25l-5 67q54 19 102 19q64 0 100 -29t36 -81q0 -58 -60 -87q64 -33 64 -98q0 -53 -40 -85 t-107 -32q-52 0 -106 19zM536 84v56l156 261h91v-254h50v-63h-50v-84h-71v84h-176zM615 147h97l2 143q0 5 0.5 13.5t1.5 19.5q0 -1 -24.5 -44t-49.5 -86z" />
<glyph unicode="&#xbf;" horiz-adv-x="509" d="M188 384v105h102v-105h-102zM405 -67l7 -93q-84 -29 -162 -29q-91 0 -148 48t-57 124q0 43 19.5 81.5t73.5 101.5q38 44 48.5 67.5t10.5 69.5h86q0 -68 -15 -101.5t-74 -99.5q-50 -58 -50 -108q0 -44 32 -71t85 -27q70 0 144 37z" />
<glyph unicode="&#xc0;" horiz-adv-x="683" d="M308 733l-129 130h110l88 -130h-69zM5 0l284 667h100l289 -667h-107l-70 169h-324l-69 -169h-103zM207 250h261l-77 186q-46 109 -54 149q-12 -40 -56 -151z" />
<glyph unicode="&#xc1;" horiz-adv-x="683" d="M316 733l87 130h111l-129 -130h-69zM5 0l284 667h100l289 -667h-107l-70 169h-324l-69 -169h-103zM207 250h261l-77 186q-46 109 -54 149q-12 -40 -56 -151z" />
<glyph unicode="&#xc2;" horiz-adv-x="683" d="M190 733l110 130h91l110 -130h-84l-72 83l-71 -83h-84zM5 0l284 667h100l289 -667h-107l-70 169h-324l-69 -169h-103zM207 250h261l-77 186q-46 109 -54 149q-12 -40 -56 -151z" />
<glyph unicode="&#xc3;" horiz-adv-x="683" d="M193 741q19 105 99 105q34 0 97 -28q26 -12 40 -12q37 0 47 44h47q0 -2 -0.5 -5.5t-1.5 -4.5q-5 -28 -8.5 -37.5t-13.5 -22.5q-26 -37 -70 -37q-19 0 -34 4.5t-60 23.5q-36 15 -53 15q-14 0 -25.5 -12.5t-16.5 -32.5h-47zM5 0l284 667h100l289 -667h-107l-70 169h-324 l-69 -169h-103zM207 250h261l-77 186q-46 109 -54 149q-12 -40 -56 -151z" />
<glyph unicode="&#xc4;" horiz-adv-x="683" d="M391 746v97h91v-97h-91zM197 746v97h91v-97h-91zM5 0l284 667h100l289 -667h-107l-70 169h-324l-69 -169h-103zM207 250h261l-77 186q-46 109 -54 149q-12 -40 -56 -151z" />
<glyph unicode="&#xc5;" horiz-adv-x="683" d="M343 706q-42 0 -71 29.5t-29 70.5t29.5 70t71.5 29q40 0 69 -29.5t29 -69.5q0 -41 -29 -70.5t-70 -29.5zM342 757q20 0 34 14.5t14 34.5q0 19 -14 33.5t-33 14.5q-20 0 -34.5 -14t-14.5 -34t14 -34.5t34 -14.5zM5 0l284 667h100l289 -667h-107l-70 169h-324l-69 -169 h-103zM207 250h261l-77 186q-46 109 -54 149q-12 -40 -56 -151z" />
<glyph unicode="&#xc6;" horiz-adv-x="902" d="M6 0l402 667h420v-81h-268l15 -201h237v-81h-231l15 -223h244v-81h-332l-13 171h-281l-101 -171h-107zM260 252h229l-22 346z" />
<glyph unicode="&#xc7;" horiz-adv-x="581" d="M296 -77l47 76q-104 15 -170 66q-125 97 -125 272q0 148 97.5 241.5t252.5 93.5q88 0 152 -30l-8 -90q-69 39 -139 39q-112 0 -182.5 -70.5t-70.5 -181.5q0 -112 73 -185.5t184 -73.5q67 0 143 30l7 -92q-68 -23 -144 -23q-16 0 -29 1l-30 -50q25 5 35 5q33 0 55 -19.5 t22 -49.5q0 -38 -32 -62t-83 -24q-48 0 -92 20l17 35q32 -13 65 -13q23 0 37.5 10.5t14.5 27.5q0 16 -13.5 27t-32.5 11q-10 0 -35 -7z" />
<glyph unicode="&#xc8;" horiz-adv-x="527" d="M254 733l-129 130h110l88 -130h-69zM86 0v667h371v-81h-276v-197h256v-81h-256v-227h284v-81h-379z" />
<glyph unicode="&#xc9;" horiz-adv-x="527" d="M228 733l87 130h111l-129 -130h-69zM86 0v667h371v-81h-276v-197h256v-81h-256v-227h284v-81h-379z" />
<glyph unicode="&#xca;" horiz-adv-x="527" d="M120 733l110 130h91l110 -130h-84l-72 83l-71 -83h-84zM86 0v667h371v-81h-276v-197h256v-81h-256v-227h284v-81h-379z" />
<glyph unicode="&#xcb;" horiz-adv-x="527" d="M327 746v97h91v-97h-91zM133 746v97h91v-97h-91zM86 0v667h371v-81h-276v-197h256v-81h-256v-227h284v-81h-379z" />
<glyph unicode="&#xcc;" horiz-adv-x="280" d="M117 733l-119 130h107l81 -130h-69zM93 0v667h95v-667h-95z" />
<glyph unicode="&#xcd;" horiz-adv-x="280" d="M108 733l81 130h107l-119 -130h-69zM93 0v667h95v-667h-95z" />
<glyph unicode="&#xce;" horiz-adv-x="280" d="M5 733l93 130h91l93 -130h-80l-58 86l-59 -86h-80zM93 0v667h95v-667h-95z" />
<glyph unicode="&#xcf;" horiz-adv-x="280" d="M170 746v97h86v-97h-86zM31 746v97h86v-97h-86zM93 0v667h95v-667h-95z" />
<glyph unicode="&#xd0;" horiz-adv-x="689" d="M86 0v307h-67v80h67v280h137q118 0 177 -16q107 -29 174 -118t67 -202q0 -107 -61 -191t-163 -118q-69 -22 -180 -22h-151zM180 82h50q113 0 169 24q66 28 103.5 88.5t37.5 139.5q0 80 -44 144.5t-115 89.5q-48 17 -150 17h-51v-198h173v-80h-173v-225z" />
<glyph unicode="&#xd1;" horiz-adv-x="705" d="M214 741q19 105 99 105q34 0 97 -28q26 -12 40 -12q37 0 47 44h47q0 -2 -0.5 -5.5t-1.5 -4.5q-5 -28 -8.5 -37.5t-13.5 -22.5q-26 -37 -70 -37q-19 0 -34 4.5t-60 23.5q-36 15 -53 15q-14 0 -25.5 -12.5t-16.5 -32.5h-47zM86 0v667h130l227 -393q67 -117 91 -191 q-10 97 -10 263v321h95v-667h-123l-211 362q-91 156 -112 229q8 -91 8 -251v-340h-95z" />
<glyph unicode="&#xd2;" horiz-adv-x="741" d="M350 733l-129 130h110l88 -130h-69zM137 81q-41 45 -65 112.5t-24 138.5q0 76 25 145.5t69 116.5q81 86 233 86q145 0 231.5 -94.5t86.5 -252.5q0 -149 -80 -246q-83 -100 -241 -100q-150 0 -235 94zM150 334q0 -120 62 -196t159 -76t158.5 75.5t61.5 193.5 q0 121 -60.5 197.5t-156.5 76.5q-102 0 -163 -73.5t-61 -197.5z" />
<glyph unicode="&#xd3;" horiz-adv-x="741" d="M338 733l87 130h111l-129 -130h-69zM137 81q-41 45 -65 112.5t-24 138.5q0 76 25 145.5t69 116.5q81 86 233 86q145 0 231.5 -94.5t86.5 -252.5q0 -149 -80 -246q-83 -100 -241 -100q-150 0 -235 94zM150 334q0 -120 62 -196t159 -76t158.5 75.5t61.5 193.5 q0 121 -60.5 197.5t-156.5 76.5q-102 0 -163 -73.5t-61 -197.5z" />
<glyph unicode="&#xd4;" horiz-adv-x="741" d="M225 733l110 130h91l110 -130h-84l-72 83l-71 -83h-84zM137 81q-41 45 -65 112.5t-24 138.5q0 76 25 145.5t69 116.5q81 86 233 86q145 0 231.5 -94.5t86.5 -252.5q0 -149 -80 -246q-83 -100 -241 -100q-150 0 -235 94zM150 334q0 -120 62 -196t159 -76t158.5 75.5 t61.5 193.5q0 121 -60.5 197.5t-156.5 76.5q-102 0 -163 -73.5t-61 -197.5z" />
<glyph unicode="&#xd5;" horiz-adv-x="741" d="M222 741q19 105 99 105q34 0 97 -28q26 -12 40 -12q37 0 47 44h47q0 -2 -0.5 -5.5t-1.5 -4.5q-5 -28 -8.5 -37.5t-13.5 -22.5q-26 -37 -70 -37q-19 0 -34 4.5t-60 23.5q-36 15 -53 15q-14 0 -25.5 -12.5t-16.5 -32.5h-47zM137 81q-41 45 -65 112.5t-24 138.5 q0 76 25 145.5t69 116.5q81 86 233 86q145 0 231.5 -94.5t86.5 -252.5q0 -149 -80 -246q-83 -100 -241 -100q-150 0 -235 94zM150 334q0 -120 62 -196t159 -76t158.5 75.5t61.5 193.5q0 121 -60.5 197.5t-156.5 76.5q-102 0 -163 -73.5t-61 -197.5z" />
<glyph unicode="&#xd6;" horiz-adv-x="741" d="M429 746v97h91v-97h-91zM235 746v97h91v-97h-91zM137 81q-41 45 -65 112.5t-24 138.5q0 76 25 145.5t69 116.5q81 86 233 86q145 0 231.5 -94.5t86.5 -252.5q0 -149 -80 -246q-83 -100 -241 -100q-150 0 -235 94zM150 334q0 -120 62 -196t159 -76t158.5 75.5t61.5 193.5 q0 121 -60.5 197.5t-156.5 76.5q-102 0 -163 -73.5t-61 -197.5z" />
<glyph unicode="&#xd7;" d="M123 142l-52 52l146 146l-146 146l52 52l146 -146l146 146l52 -52l-146 -146l146 -146l-52 -52l-146 146z" />
<glyph unicode="&#xd8;" horiz-adv-x="741" d="M54 25l66 76q-72 99 -72 234q0 73 25 142.5t69 116.5q81 86 227 86q120 0 205 -63l62 71l51 -41l-67 -77q73 -101 73 -237q0 -158 -86.5 -252t-232.5 -94q-127 0 -208 66l-62 -70zM187 175l324 375q-53 55 -143 55q-97 0 -157.5 -75t-60.5 -194q0 -93 37 -161zM228 119 q66 -57 143 -57q97 0 158.5 75t61.5 193q0 86 -38 168z" />
<glyph unicode="&#xd9;" horiz-adv-x="688" d="M324 733l-129 130h110l88 -130h-69zM602 667v-376q0 -76 -8.5 -119t-31.5 -78q-67 -107 -217 -107q-83 0 -144 35.5t-89 101.5q-26 58 -26 180v363h95v-349q0 -121 24 -169q19 -38 57 -59.5t86 -21.5q110 0 145 101q14 39 14 144v354h95z" />
<glyph unicode="&#xda;" horiz-adv-x="688" d="M308 733l87 130h111l-129 -130h-69zM602 667v-376q0 -76 -8.5 -119t-31.5 -78q-67 -107 -217 -107q-83 0 -144 35.5t-89 101.5q-26 58 -26 180v363h95v-349q0 -121 24 -169q19 -38 57 -59.5t86 -21.5q110 0 145 101q14 39 14 144v354h95z" />
<glyph unicode="&#xdb;" horiz-adv-x="688" d="M195 733l110 130h91l110 -130h-84l-72 83l-71 -83h-84zM602 667v-376q0 -76 -8.5 -119t-31.5 -78q-67 -107 -217 -107q-83 0 -144 35.5t-89 101.5q-26 58 -26 180v363h95v-349q0 -121 24 -169q19 -38 57 -59.5t86 -21.5q110 0 145 101q14 39 14 144v354h95z" />
<glyph unicode="&#xdc;" horiz-adv-x="688" d="M402 746v97h91v-97h-91zM208 746v97h91v-97h-91zM602 667v-376q0 -76 -8.5 -119t-31.5 -78q-67 -107 -217 -107q-83 0 -144 35.5t-89 101.5q-26 58 -26 180v363h95v-349q0 -121 24 -169q19 -38 57 -59.5t86 -21.5q110 0 145 101q14 39 14 144v354h95z" />
<glyph unicode="&#xdd;" horiz-adv-x="629" d="M276 733l87 130h111l-129 -130h-69zM269 0v280l-264 387h118l165 -250q22 -32 29 -50q8 18 27 47l167 253h113l-260 -384v-283h-95z" />
<glyph unicode="&#xde;" horiz-adv-x="533" d="M86 0v667h96v-94h37q119 0 169 -18q56 -20 88.5 -69t32.5 -112t-31.5 -111t-87.5 -70q-49 -20 -155 -20h-53v-173h-96zM182 254h52q83 0 118 19q56 32 56 101q0 82 -86 109q-32 9 -100 9h-40v-238z" />
<glyph unicode="&#xdf;" horiz-adv-x="577" d="M69 0v396q0 95 4.5 134.5t18.5 72.5q25 58 78 90.5t124 32.5q90 0 146 -53t56 -138q0 -56 -30 -96.5t-84 -57.5q64 -3 106 -55t42 -128q0 -88 -57 -147q-58 -58 -162 -58q-30 0 -83 7v80q40 -15 73 -15q59 0 96 37.5t37 98.5q0 68 -42 104t-121 36h-18v74h16q63 0 97 31 t34 89q0 53 -30.5 86t-79.5 33q-38 0 -68.5 -21.5t-44.5 -58.5q-17 -43 -17 -170v-404h-91z" />
<glyph unicode="&#xe0;" horiz-adv-x="529" d="M236 571l-118 137h100l82 -137h-64zM460 0h-83q-1 19 -1 39q0 15 1 45q-54 -91 -164 -91q-77 0 -123.5 40t-46.5 107q0 77 66.5 119t189.5 42q21 0 68 -3q-1 123 -122 123q-73 0 -144 -48l-5 80q78 45 164 45q132 0 175 -90q20 -41 20 -140v-102q0 -103 5 -166zM139 141 q0 -34 26.5 -55t67.5 -21q40 0 72.5 19t48.5 52q15 31 15 95q-25 3 -49 3q-181 0 -181 -93z" />
<glyph unicode="&#xe1;" horiz-adv-x="529" d="M231 571l82 137h100l-118 -137h-64zM460 0h-83q-1 19 -1 39q0 15 1 45q-54 -91 -164 -91q-77 0 -123.5 40t-46.5 107q0 77 66.5 119t189.5 42q21 0 68 -3q-1 123 -122 123q-73 0 -144 -48l-5 80q78 45 164 45q132 0 175 -90q20 -41 20 -140v-102q0 -103 5 -166zM139 141 q0 -34 26.5 -55t67.5 -21q40 0 72.5 19t48.5 52q15 31 15 95q-25 3 -49 3q-181 0 -181 -93z" />
<glyph unicode="&#xe2;" horiz-adv-x="529" d="M124 571l103 137h89l103 -137h-76l-71 92l-72 -92h-76zM460 0h-83q-1 19 -1 39q0 15 1 45q-54 -91 -164 -91q-77 0 -123.5 40t-46.5 107q0 77 66.5 119t189.5 42q21 0 68 -3q-1 123 -122 123q-73 0 -144 -48l-5 80q78 45 164 45q132 0 175 -90q20 -41 20 -140v-102 q0 -103 5 -166zM139 141q0 -34 26.5 -55t67.5 -21q40 0 72.5 19t48.5 52q15 31 15 95q-25 3 -49 3q-181 0 -181 -93z" />
<glyph unicode="&#xe3;" horiz-adv-x="529" d="M133 585q14 100 92 100q16 0 27.5 -3.5t56.5 -22.5q22 -10 35 -10q31 0 37 38h47q-7 -47 -29 -73.5t-56 -26.5q-24 0 -105 35q-9 4 -21 4q-29 0 -37 -41h-47zM460 0h-83q-1 19 -1 39q0 15 1 45q-54 -91 -164 -91q-77 0 -123.5 40t-46.5 107q0 77 66.5 119t189.5 42 q21 0 68 -3q-1 123 -122 123q-73 0 -144 -48l-5 80q78 45 164 45q132 0 175 -90q20 -41 20 -140v-102q0 -103 5 -166zM139 141q0 -34 26.5 -55t67.5 -21q40 0 72.5 19t48.5 52q15 31 15 95q-25 3 -49 3q-181 0 -181 -93z" />
<glyph unicode="&#xe4;" horiz-adv-x="529" d="M325 587v97h87v-97h-87zM144 587v97h87v-97h-87zM460 0h-83q-1 19 -1 39q0 15 1 45q-54 -91 -164 -91q-77 0 -123.5 40t-46.5 107q0 77 66.5 119t189.5 42q21 0 68 -3q-1 123 -122 123q-73 0 -144 -48l-5 80q78 45 164 45q132 0 175 -90q20 -41 20 -140v-102 q0 -103 5 -166zM139 141q0 -34 26.5 -55t67.5 -21q40 0 72.5 19t48.5 52q15 31 15 95q-25 3 -49 3q-181 0 -181 -93z" />
<glyph unicode="&#xe5;" horiz-adv-x="529" d="M267 546q-40 0 -68.5 28.5t-28.5 69.5q0 40 29 68t70 28q38 0 66.5 -28.5t28.5 -68.5t-28.5 -68.5t-68.5 -28.5zM267 595q19 0 33.5 14.5t14.5 33.5t-14 33.5t-33 14.5q-20 0 -34.5 -14t-14.5 -34t14 -34t34 -14zM460 0h-83q-1 19 -1 39q0 15 1 45q-54 -91 -164 -91 q-77 0 -123.5 40t-46.5 107q0 77 66.5 119t189.5 42q21 0 68 -3q-1 123 -122 123q-73 0 -144 -48l-5 80q78 45 164 45q132 0 175 -90q20 -41 20 -140v-102q0 -103 5 -166zM139 141q0 -34 26.5 -55t67.5 -21q40 0 72.5 19t48.5 52q15 31 15 95q-25 3 -49 3q-181 0 -181 -93z " />
<glyph unicode="&#xe6;" horiz-adv-x="855" d="M766 107v-89q-65 -25 -144 -25q-91 0 -152 40q-48 33 -56 74q-11 -52 -62 -83t-125 -31q-83 0 -133.5 41t-50.5 109q0 87 88 130q61 30 185 30h66q-1 46 -19 70q-34 49 -118 49q-76 0 -144 -47v83q82 41 162 41q60 0 105 -23t61 -61q19 39 64 61.5t104 22.5 q131 0 186 -106q31 -59 32 -168h-346q5 -74 50 -117t118 -43q62 0 129 42zM469 296h247q-5 65 -36.5 100.5t-83.5 35.5t-86.5 -37t-40.5 -99zM382 231h-58q-83 0 -120 -14q-65 -23 -65 -75q0 -34 27 -55.5t68 -21.5q62 0 105 48t43 118z" />
<glyph unicode="&#xe7;" horiz-adv-x="427" d="M189 -76l46 75q-90 13 -143 80t-53 165q0 109 69.5 180t175.5 71q60 0 111 -20l-6 -80q-39 23 -89 23q-73 0 -119 -48t-46 -122q0 -79 45.5 -128t117.5 -49q52 0 102 31l7 -83q-51 -25 -117 -25h-18l-29 -47q27 4 37 4q33 0 54 -19t21 -49q0 -35 -32 -59t-79 -24 q-49 0 -93 20l17 34q32 -14 65 -14q23 0 37.5 10t14.5 27q0 16 -13 26.5t-32 10.5q-11 0 -36 -7z" />
<glyph unicode="&#xe8;" horiz-adv-x="522" d="M243 571l-118 137h100l82 -137h-64zM446 110v-87q-79 -36 -157 -36q-115 0 -182.5 71t-67.5 191q0 114 63.5 183.5t167.5 69.5q101 0 157 -69.5t56 -195.5q0 -9 -1 -16h-352q9 -73 53 -115t111 -42q76 0 152 46zM131 292h261q-8 59 -25 84q-35 54 -100 54 q-54 0 -90.5 -37.5t-45.5 -100.5z" />
<glyph unicode="&#xe9;" horiz-adv-x="522" d="M241 571l82 137h100l-118 -137h-64zM446 110v-87q-79 -36 -157 -36q-115 0 -182.5 71t-67.5 191q0 114 63.5 183.5t167.5 69.5q101 0 157 -69.5t56 -195.5q0 -9 -1 -16h-352q9 -73 53 -115t111 -42q76 0 152 46zM131 292h261q-8 59 -25 84q-35 54 -100 54 q-54 0 -90.5 -37.5t-45.5 -100.5z" />
<glyph unicode="&#xea;" horiz-adv-x="522" d="M126 571l103 137h89l103 -137h-76l-71 92l-72 -92h-76zM446 110v-87q-79 -36 -157 -36q-115 0 -182.5 71t-67.5 191q0 114 63.5 183.5t167.5 69.5q101 0 157 -69.5t56 -195.5q0 -9 -1 -16h-352q9 -73 53 -115t111 -42q76 0 152 46zM131 292h261q-8 59 -25 84 q-35 54 -100 54q-54 0 -90.5 -37.5t-45.5 -100.5z" />
<glyph unicode="&#xeb;" horiz-adv-x="522" d="M318 587v97h87v-97h-87zM137 587v97h87v-97h-87zM446 110v-87q-79 -36 -157 -36q-115 0 -182.5 71t-67.5 191q0 114 63.5 183.5t167.5 69.5q101 0 157 -69.5t56 -195.5q0 -9 -1 -16h-352q9 -73 53 -115t111 -42q76 0 152 46zM131 292h261q-8 59 -25 84q-35 54 -100 54 q-54 0 -90.5 -37.5t-45.5 -100.5z" />
<glyph unicode="&#xec;" horiz-adv-x="229" d="M92 571l-108 137h97l75 -137h-64zM70 0v489h91v-489h-91z" />
<glyph unicode="&#xed;" horiz-adv-x="229" d="M87 571l75 137h97l-108 -137h-64zM69 0v489h91v-489h-91z" />
<glyph unicode="&#xee;" horiz-adv-x="229" d="M-10 571l86 137h89l87 -137h-73l-58 95l-58 -95h-73zM69 0v489h91v-489h-91z" />
<glyph unicode="&#xef;" horiz-adv-x="229" d="M144 587v97h82v-97h-82zM11 587v97h82v-97h-82zM70 0v489h91v-489h-91z" />
<glyph unicode="&#xf0;" horiz-adv-x="579" d="M469 710l-94 -61q69 -57 113 -150q52 -105 52 -234q0 -74 -15.5 -119.5t-53.5 -85.5q-70 -73 -181 -73q-108 0 -179.5 72.5t-71.5 182.5t68.5 184t171.5 74q44 0 70.5 -10t60.5 -39q-7 41 -36.5 88.5t-63.5 69.5l-108 -70l-31 46l84 55q-43 17 -113 31l18 55 q74 -2 163 -42l109 70zM136 243q0 -81 43 -132.5t111 -51.5q67 0 110.5 50.5t43.5 128.5q0 88 -41.5 139t-113.5 51q-67 0 -110 -52t-43 -133z" />
<glyph unicode="&#xf1;" horiz-adv-x="571" d="M151 585q14 100 92 100q16 0 27.5 -3.5t56.5 -22.5q22 -10 35 -10q31 0 37 38h47q-7 -47 -29 -73.5t-56 -26.5q-24 0 -105 35q-9 4 -21 4q-29 0 -37 -41h-47zM75 0v242q0 125 -6 247h85l4 -77q58 86 168 86q64 0 108 -31t61 -88q13 -40 13 -151v-228h-91v220q0 92 -8 121 q-22 80 -103 80q-45 0 -80 -27.5t-49 -73.5q-11 -38 -11 -141v-179h-91z" />
<glyph unicode="&#xf2;" horiz-adv-x="579" d="M268 571l-118 137h100l82 -137h-64zM39 243q0 112 70.5 185.5t178.5 73.5q112 0 182 -73t70 -189q0 -110 -71 -181.5t-181 -71.5q-107 0 -178 73t-71 183zM135 244q0 -82 43.5 -133.5t111.5 -51.5q67 0 110.5 51.5t43.5 129.5q0 84 -43 137t-111 53t-111.5 -52.5 t-43.5 -133.5z" />
<glyph unicode="&#xf3;" horiz-adv-x="579" d="M263 571l82 137h100l-118 -137h-64zM39 243q0 112 70.5 185.5t178.5 73.5q112 0 182 -73t70 -189q0 -110 -71 -181.5t-181 -71.5q-107 0 -178 73t-71 183zM135 244q0 -82 43.5 -133.5t111.5 -51.5q67 0 110.5 51.5t43.5 129.5q0 84 -43 137t-111 53t-111.5 -52.5 t-43.5 -133.5z" />
<glyph unicode="&#xf4;" horiz-adv-x="579" d="M152 571l103 137h89l103 -137h-76l-71 92l-72 -92h-76zM39 243q0 112 70.5 185.5t178.5 73.5q112 0 182 -73t70 -189q0 -110 -71 -181.5t-181 -71.5q-107 0 -178 73t-71 183zM135 244q0 -82 43.5 -133.5t111.5 -51.5q67 0 110.5 51.5t43.5 129.5q0 84 -43 137t-111 53 t-111.5 -52.5t-43.5 -133.5z" />
<glyph unicode="&#xf5;" horiz-adv-x="579" d="M158 585q14 100 92 100q16 0 27.5 -3.5t56.5 -22.5q23 -10 35 -10q31 0 37 38h47q-7 -47 -29 -73.5t-56 -26.5q-24 0 -105 35q-9 4 -21 4q-29 0 -37 -41h-47zM39 243q0 112 70.5 185.5t178.5 73.5q112 0 182 -73t70 -189q0 -110 -71 -181.5t-181 -71.5q-107 0 -178 73 t-71 183zM135 244q0 -82 43.5 -133.5t111.5 -51.5q67 0 110.5 51.5t43.5 129.5q0 84 -43 137t-111 53t-111.5 -52.5t-43.5 -133.5z" />
<glyph unicode="&#xf6;" horiz-adv-x="579" d="M343 587v97h87v-97h-87zM162 587v97h87v-97h-87zM39 243q0 112 70.5 185.5t178.5 73.5q112 0 182 -73t70 -189q0 -110 -71 -181.5t-181 -71.5q-107 0 -178 73t-71 183zM135 244q0 -82 43.5 -133.5t111.5 -51.5q67 0 110.5 51.5t43.5 129.5q0 84 -43 137t-111 53 t-111.5 -52.5t-43.5 -133.5z" />
<glyph unicode="&#xf7;" d="M221 444v95h95v-95h-95zM39 304v73h460v-73h-460zM221 142v95h95v-95h-95z" />
<glyph unicode="&#xf8;" horiz-adv-x="579" d="M40 14l56 61q-57 69 -57 169q0 112 70.5 185t178.5 73q84 0 149 -46l55 61l46 -39l-56 -63q58 -70 58 -173q0 -112 -71 -183.5t-181 -71.5q-80 0 -148 46l-54 -61zM158 140l220 257q-30 33 -88 33q-68 0 -111.5 -52.5t-43.5 -134.5q0 -49 23 -103zM198 94q36 -35 93 -35 q66 0 110 52.5t44 131.5q0 60 -26 106z" />
<glyph unicode="&#xf9;" horiz-adv-x="566" d="M258 571l-118 137h100l82 -137h-64zM413 0l-5 76q-59 -83 -164 -83q-54 0 -95.5 23t-61.5 65q-24 49 -24 149v259h91v-227q0 -97 13 -131q25 -66 95 -66q78 0 117 77q13 27 16.5 50t3.5 82v215h91v-308q0 -75 6 -181h-83z" />
<glyph unicode="&#xfa;" horiz-adv-x="566" d="M246 571l82 137h100l-118 -137h-64zM413 0l-5 76q-59 -83 -164 -83q-54 0 -95.5 23t-61.5 65q-24 49 -24 149v259h91v-227q0 -97 13 -131q25 -66 95 -66q78 0 117 77q13 27 16.5 50t3.5 82v215h91v-308q0 -75 6 -181h-83z" />
<glyph unicode="&#xfb;" horiz-adv-x="566" d="M136 571l103 137h89l103 -137h-76l-71 92l-72 -92h-76zM413 0l-5 76q-59 -83 -164 -83q-54 0 -95.5 23t-61.5 65q-24 49 -24 149v259h91v-227q0 -97 13 -131q25 -66 95 -66q78 0 117 77q13 27 16.5 50t3.5 82v215h91v-308q0 -75 6 -181h-83z" />
<glyph unicode="&#xfc;" horiz-adv-x="566" d="M330 587v97h87v-97h-87zM149 587v97h87v-97h-87zM413 0l-5 76q-59 -83 -164 -83q-54 0 -95.5 23t-61.5 65q-24 49 -24 149v259h91v-227q0 -97 13 -131q25 -66 95 -66q78 0 117 77q13 27 16.5 50t3.5 82v215h91v-308q0 -75 6 -181h-83z" />
<glyph unicode="&#xfd;" horiz-adv-x="471" d="M203 571l82 137h100l-118 -137h-64zM41 -126q23 -9 43 -9q41 0 65 27q30 36 45 88l-188 509h98l109 -309q24 -69 26 -101q5 29 7 37l14 41l115 332h90l-174 -484q-39 -111 -70 -150q-46 -62 -129 -62q-21 0 -56 7z" />
<glyph unicode="&#xfe;" horiz-adv-x="580" d="M165 -5v-199h-90v924h90v-231q0 -41 -6 -86q61 95 171 95q94 0 152 -68t58 -179q0 -116 -58.5 -187t-153.5 -71q-117 0 -168 96l1 -16q4 -56 4 -78zM165 243q0 -73 41 -123t102 -50q58 0 97 50t39 125q0 78 -36.5 126.5t-95.5 48.5q-64 0 -105.5 -50t-41.5 -127z" />
<glyph unicode="&#xff;" horiz-adv-x="471" d="M288 587v97h87v-97h-87zM107 587v97h87v-97h-87zM41 -126q23 -9 43 -9q41 0 65 27q30 36 45 88l-188 509h98l109 -309q24 -69 26 -101q5 29 7 37l14 41l115 332h90l-174 -484q-39 -111 -70 -150q-46 -62 -129 -62q-21 0 -56 7z" />
<glyph unicode="&#x152;" horiz-adv-x="906" d="M844 0h-321q-40 1 -120 2q-161 3 -258.5 95.5t-97.5 241.5q0 93 43 167.5t120 115.5q50 26 107 35.5t171 9.5h127h220v-81h-268v-199h249v-81h-249v-225h277v-81zM472 81v505q-100 0 -148 -11q-82 -19 -128.5 -81.5t-46.5 -154.5q0 -82 38.5 -144t107.5 -90 q32 -13 62.5 -17.5t97.5 -5.5q8 0 17 -1z" />
<glyph unicode="&#x153;" horiz-adv-x="904" d="M816 109v-90q-67 -32 -151 -32q-74 0 -125 29t-67 79q-16 -49 -68 -78.5t-120 -29.5q-108 0 -177 73.5t-69 187.5q0 110 68.5 182.5t172.5 72.5q70 0 123 -29.5t70 -78.5q18 52 63.5 80t111.5 28q127 0 184 -105q32 -59 32 -174h-344q6 -75 49.5 -117.5t114.5 -42.5 q70 0 132 45zM521 295h243q-1 62 -33 99t-84 37q-50 0 -85.5 -38t-40.5 -98zM135 244q0 -79 42.5 -132t105.5 -53q65 0 107 52.5t42 132.5t-42 133.5t-106 53.5q-66 0 -107.5 -52t-41.5 -135z" />
<glyph unicode="&#x178;" horiz-adv-x="629" d="M372 746v97h91v-97h-91zM178 746v97h91v-97h-91zM269 0v280l-264 387h118l165 -250q22 -32 29 -50q8 18 27 47l167 253h113l-260 -384v-283h-95z" />
<glyph unicode="&#x2c6;" horiz-adv-x="500" d="M102 571l103 137h89l103 -137h-76l-71 92l-72 -92h-76z" />
<glyph unicode="&#x2dc;" horiz-adv-x="500" d="M102 585q14 100 92 100q16 0 27.5 -3.5t56.5 -22.5q22 -10 35 -10q31 0 37 38h47q-7 -47 -29 -73.5t-56 -26.5q-24 0 -105 35q-9 4 -21 4q-29 0 -37 -41h-47z" />
<glyph unicode="&#x2000;" horiz-adv-x="452" />
<glyph unicode="&#x2001;" horiz-adv-x="905" />
<glyph unicode="&#x2002;" horiz-adv-x="452" />
<glyph unicode="&#x2003;" horiz-adv-x="905" />
<glyph unicode="&#x2004;" horiz-adv-x="301" />
<glyph unicode="&#x2005;" horiz-adv-x="226" />
<glyph unicode="&#x2006;" horiz-adv-x="150" />
<glyph unicode="&#x2007;" horiz-adv-x="150" />
<glyph unicode="&#x2008;" horiz-adv-x="113" />
<glyph unicode="&#x2009;" horiz-adv-x="181" />
<glyph unicode="&#x200a;" horiz-adv-x="50" />
<glyph unicode="&#x2010;" horiz-adv-x="251" d="M0 209v75h251v-75h-251z" />
<glyph unicode="&#x2011;" horiz-adv-x="251" d="M0 209v75h251v-75h-251z" />
<glyph unicode="&#x2012;" horiz-adv-x="251" d="M0 209v75h251v-75h-251z" />
<glyph unicode="&#x2013;" d="M43 209v75h452v-75h-452z" />
<glyph unicode="&#x2014;" horiz-adv-x="711" d="M0 209v75h711v-75h-711z" />
<glyph unicode="&#x2018;" horiz-adv-x="273" d="M60 485l83 235h84l-60 -235h-107z" />
<glyph unicode="&#x2019;" horiz-adv-x="273" d="M47 485l60 235h107l-83 -235h-84z" />
<glyph unicode="&#x201a;" horiz-adv-x="273" d="M47 -128l60 235h107l-83 -235h-84z" />
<glyph unicode="&#x201c;" horiz-adv-x="455" d="M242 485l83 235h84l-60 -235h-107zM60 485l83 235h84l-60 -235h-107z" />
<glyph unicode="&#x201d;" horiz-adv-x="455" d="M229 485l59 235h108l-83 -235h-84zM47 485l60 235h107l-83 -235h-84z" />
<glyph unicode="&#x201e;" horiz-adv-x="455" d="M242 -129l59 236h108l-83 -236h-84zM60 -129l60 236h107l-83 -236h-84z" />
<glyph unicode="&#x2022;" horiz-adv-x="667" d="M335 200q-58 0 -98.5 40.5t-40.5 97.5q0 58 40.5 98.5t99.5 40.5q56 0 96.5 -41t40.5 -98t-40.5 -97.5t-97.5 -40.5z" />
<glyph unicode="&#x2026;" horiz-adv-x="802" d="M615 0v107h107v-107h-107zM347 0v107h107v-107h-107zM80 0v107h107v-107h-107z" />
<glyph unicode="&#x202f;" horiz-adv-x="181" />
<glyph unicode="&#x2039;" horiz-adv-x="341" d="M191 49l-138 198l134 194h87l-124 -194l126 -198h-85z" />
<glyph unicode="&#x203a;" horiz-adv-x="341" d="M64 49l126 198l-124 194h87l134 -194l-138 -198h-85z" />
<glyph unicode="&#x205f;" horiz-adv-x="226" />
<glyph unicode="&#x20ac;" horiz-adv-x="654" d="M42 267l17 53h48v33h-65l17 53h54q25 134 105.5 204t209.5 70q107 0 184 -49l-30 -93q-60 67 -153 67q-82 0 -139.5 -53.5t-74.5 -145.5h325l-17 -53h-314v-33h303l-17 -53h-280q17 -96 74 -150.5t140 -54.5q91 0 154 69v-112q-69 -32 -154 -32q-129 0 -212 73.5 t-105 206.5h-70z" />
<glyph unicode="&#x2122;" horiz-adv-x="861" d="M365 287v381h101l80 -190l27 -65q9 -22 17 -47q19 57 43 113l78 189h102v-381h-65v217l1 111q-25 -76 -54 -144l-77 -184h-60l-77 184q-27 64 -55 139q4 -58 4 -110v-213h-65zM128 287v327h-128v54h318v-54h-125v-327h-65z" />
<glyph unicode="&#x25fc;" horiz-adv-x="490" d="M0 490h490v-490h-490v490z" />
</font>
</defs>
</svg>
