<?xml version="1.0" standalone="no"?>
<!DOCTYPE svg PUBLIC "-//W3C//DTD SVG 1.1//EN" "http://www.w3.org/Graphics/SVG/1.1/DTD/svg11.dtd" >
<svg xmlns="http://www.w3.org/2000/svg">
<metadata></metadata>
<defs>
<font id="graphein_problack" horiz-adv-x="587" >
<font-face units-per-em="1000" ascent="758" descent="-242" />
<missing-glyph horiz-adv-x="250" />
<glyph unicode="&#xfb01;" horiz-adv-x="697" d="M116 0v372h-99v119h99v43q0 189 203 189q46 0 91 -11l-9 -116q-26 9 -45 9q-38 0 -55 -27q-12 -19 -12 -63v-24h121v-119h-121v-372h-173zM471 581v127h173v-127h-173zM471 0v496h173v-496h-173z" />
<glyph unicode="&#xfb02;" horiz-adv-x="697" d="M116 0v372h-99v119h99v43q0 189 203 189q46 0 91 -11l-9 -116q-26 9 -45 9q-38 0 -55 -27q-12 -19 -12 -63v-24h121v-119h-121v-372h-173zM471 0v713h173v-713h-173z" />
<glyph unicode="&#xfb03;" horiz-adv-x="1053" d="M116 0v372h-99v119h99v43q0 189 203 189q46 0 91 -11l-9 -116q-26 9 -45 9q-38 0 -55 -27q-12 -19 -12 -63v-24h183v43q0 189 203 189q45 0 90 -11l-9 -116q-26 9 -44 9q-39 0 -55 -27q-12 -19 -12 -63v-24h120v-119h-120v-372h-173v372h-183v-372h-173zM827 581v127h173 v-127h-173zM827 0v496h173v-496h-173z" />
<glyph unicode="&#xfb04;" horiz-adv-x="1053" d="M116 0v372h-99v119h99v43q0 189 203 189q46 0 91 -11l-9 -116q-26 9 -45 9q-38 0 -55 -27q-12 -19 -12 -63v-24h183v43q0 189 203 189q45 0 90 -11l-9 -116q-26 9 -44 9q-39 0 -55 -27q-12 -19 -12 -63v-24h120v-119h-120v-372h-173v372h-183v-372h-173zM827 0v713h173 v-713h-173z" />
<glyph horiz-adv-x="0" />
<glyph horiz-adv-x="333" />
<glyph unicode=" "  horiz-adv-x="250" />
<glyph unicode="&#x09;" horiz-adv-x="250" />
<glyph unicode="&#xa0;" horiz-adv-x="250" />
<glyph unicode="!" horiz-adv-x="283" d="M76 219l-23 448h176l-23 -448h-130zM61 0v148h159v-148h-159z" />
<glyph unicode="&#x22;" horiz-adv-x="433" d="M258 445l-24 268h163l-25 -268h-114zM60 445l-25 268h163l-24 -268h-114z" />
<glyph unicode="#" d="M72 0l29 182h-95l18 114h95l14 88h-95l18 114h95l26 169h129l-27 -169h92l26 169h130l-27 -169h94l-18 -114h-94l-14 -88h94l-18 -114h-95l-28 -182h-129l29 182h-92l-28 -182h-129zM247 296h92l14 88h-92z" />
<glyph unicode="$" d="M59 18l14 135q109 -38 200 -38q120 0 120 74q0 47 -48 65q-19 8 -84 19q-110 20 -167 72.5t-57 134.5t58.5 133.5t156.5 56.5v109h73v-109q83 -1 174 -25l-11 -126q-104 40 -187 40q-109 0 -109 -69q0 -43 50 -61q14 -6 77 -18q119 -23 174 -72.5t55 -132.5 q0 -89 -61.5 -146.5t-164.5 -64.5v-108h-73v105q-65 2 -101 7t-89 19z" />
<glyph unicode="%" horiz-adv-x="899" d="M218 -33l364 732h91l-367 -732h-88zM199 331q-78 0 -122 48t-44 134t43 134t120 48q79 0 123 -48.5t44 -135.5q0 -85 -43.5 -132.5t-120.5 -47.5zM197 417q25 0 34.5 23.5t9.5 82.5q0 49 -9 69t-31 20q-24 0 -34.5 -25.5t-10.5 -84.5q0 -46 9.5 -65.5t31.5 -19.5z M533 174q0 87 43.5 135t121.5 48q79 0 123 -48.5t44 -136.5q0 -83 -44.5 -131t-121.5 -48q-78 0 -122 48t-44 133zM657 174q0 -55 9 -75.5t32 -20.5q25 0 34.5 24.5t9.5 86.5q0 47 -9 65.5t-32 18.5q-24 0 -34 -22t-10 -77z" />
<glyph unicode="&#x26;" horiz-adv-x="746" d="M33 192q0 88 70 141q27 21 61 38q-46 37 -65 71t-19 78q0 76 61 119.5t167 43.5q98 0 157 -39q30 -20 48.5 -53.5t18.5 -69.5q0 -77 -71 -135q-23 -18 -66 -40l112 -111q25 33 34 56.5t14 69.5h148q-5 -77 -27.5 -128.5t-72.5 -101.5l119 -131h-187l-42 48 q-44 -34 -86.5 -47t-106.5 -13q-119 0 -193 56.5t-74 147.5zM300 418q81 43 81 93q0 28 -20 45.5t-52 17.5t-52.5 -17.5t-20.5 -45.5q0 -23 14 -43.5t50 -49.5zM196 198q0 -41 31 -68.5t78 -27.5q54 0 98 35l-147 148q-32 -19 -46 -39t-14 -48z" />
<glyph unicode="'" horiz-adv-x="234" d="M60 445l-25 268h163l-24 -268h-114z" />
<glyph unicode="(" horiz-adv-x="377" d="M249 -40q20 -50 81 -162h-139q-81 117 -117.5 224t-36.5 229q0 130 35 235t119 227h139q-66 -119 -93 -197q-41 -115 -41 -263q0 -154 53 -293z" />
<glyph unicode=")" horiz-adv-x="377" d="M140 -5q41 115 41 263q0 154 -53 293q-22 55 -81 162h139q82 -117 118 -223.5t36 -229.5q0 -130 -35 -235t-119 -227h-139q67 123 93 197z" />
<glyph unicode="*" d="M225 333l-95 69l101 98l-136 25l35 111l129 -63l-23 140h119l-23 -140l123 63l37 -111l-137 -25l100 -98l-100 -69l-61 125z" />
<glyph unicode="+" d="M233 103v180h-190v120h190v180h120v-180h190v-120h-190v-180h-120z" />
<glyph unicode="," horiz-adv-x="272" d="M13 -105l63 259h162l-95 -259h-130z" />
<glyph unicode="-" horiz-adv-x="283" d="M0 201v126h283v-126h-283z" />
<glyph unicode="." horiz-adv-x="272" d="M55 0v153h161v-153h-161z" />
<glyph unicode="/" horiz-adv-x="472" d="M-34 -202l334 915h131l-333 -915h-132z" />
<glyph unicode="0" d="M92 77q-57 83 -57 259q0 178 63 260t199 82q118 0 180 -68q40 -44 57 -109t17 -171q0 -196 -78 -277q-59 -64 -177 -64q-67 0 -121 23.5t-83 64.5zM293 105q46 0 67 60q21 57 21 165q0 117 -24 179q-21 53 -64 53q-89 0 -89 -227q0 -230 89 -230z" />
<glyph unicode="1" d="M255 0v398q0 48 1 69l1 23l-125 -91l-79 119l226 149h156v-667h-180z" />
<glyph unicode="2" d="M52 0v126l54 45q45 39 104 95.5t80 82.5q53 63 53 111q0 39 -27 61.5t-74 22.5q-77 0 -166 -47l-9 143q128 38 218 38q106 0 165 -49q70 -56 70 -147q0 -102 -125 -240q-73 -79 -123 -117q15 0 19 1h15q8 1 23 1h206v-127h-483z" />
<glyph unicode="3" d="M52 13l7 139q85 -35 164 -35q64 0 99 21.5t35 60.5q0 49 -45 66q-32 12 -100 12h-50v121h13l46 -1q63 -1 97 18t34 55t-32.5 56.5t-90.5 20.5q-69 0 -150 -29l-10 130q108 30 193 30q125 0 193 -47t68 -135q0 -118 -125 -152q136 -31 136 -155q0 -90 -80.5 -145 t-212.5 -55q-93 0 -189 24z" />
<glyph unicode="4" d="M15 126v147l268 394h194v-420h95v-121h-95v-126h-165v126h-297zM142 247h177l6 211v31l3 51l-163 -259q-11 -18 -23 -34z" />
<glyph unicode="5" d="M58 15l2 142q86 -38 160 -38q65 0 100.5 25t35.5 71q0 100 -163 100q-53 0 -126 -13l2 361h433v-124h-278l-1 -108q42 3 61 3q116 0 181 -55.5t65 -154.5q0 -109 -78 -172t-212 -63q-89 0 -182 26z" />
<glyph unicode="6" d="M303 -11q-128 0 -195.5 83.5t-67.5 241.5q0 178 78.5 271t228.5 93q76 0 161 -25l-13 -132q-70 34 -141 34q-100 0 -135 -84q-16 -39 -16 -106q49 65 137 65q91 0 148 -59.5t57 -154.5q0 -102 -66.5 -164.5t-175.5 -62.5zM212 209q0 -46 23 -75t60 -29q38 0 61.5 26.5 t23.5 70.5q0 46 -23.5 75.5t-60.5 29.5t-60.5 -27.5t-23.5 -70.5z" />
<glyph unicode="7" d="M106 0l252 537q-29 -2 -52 -2h-253v128h480v-140l-238 -523h-189z" />
<glyph unicode="8" d="M35 185q0 114 131 158q-59 26 -86.5 63t-27.5 92q0 82 65.5 131t174.5 49q107 0 170 -46.5t63 -125.5q0 -103 -109 -152q59 -20 87 -50q49 -49 49 -122q0 -45 -21.5 -85.5t-58.5 -62.5q-74 -45 -180 -45q-113 0 -185 55t-72 141zM293 399q77 23 77 91q0 35 -22 56t-58 21 q-37 0 -60 -21.5t-23 -55.5q0 -61 86 -91zM200 193q0 -37 27.5 -62.5t68.5 -25.5q38 0 64.5 24.5t26.5 60.5q0 37 -23.5 59.5t-80.5 40.5q-15 -6 -18 -8q-65 -29 -65 -89z" />
<glyph unicode="9" d="M77 14l13 132q70 -34 141 -34q100 0 135 84q16 37 16 106q-49 -65 -136 -65q-91 0 -148.5 59.5t-57.5 154.5q0 102 66.5 164.5t175.5 62.5q128 0 195.5 -83.5t67.5 -241.5q0 -178 -78.5 -271t-228.5 -93q-75 0 -161 25zM289 360q37 0 60.5 27.5t23.5 70.5q0 46 -23 75 t-60 29q-38 0 -61.5 -26.5t-23.5 -70.5q0 -46 23.5 -75.5t60.5 -29.5z" />
<glyph unicode=":" horiz-adv-x="272" d="M55 345v153h161v-153h-161zM55 0v153h161v-153h-161z" />
<glyph unicode=";" horiz-adv-x="272" d="M66 345v153h161v-153h-161zM13 -105l63 259h162l-95 -259h-130z" />
<glyph unicode="&#x3c;" horiz-adv-x="500" d="M33 280v109l433 220v-128l-296 -147l295 -148l1 -128z" />
<glyph unicode="=" d="M43 370v115h500v-115h-500zM43 202v115h500v-115h-500z" />
<glyph unicode="&#x3e;" horiz-adv-x="500" d="M33 58v129l296 147l-295 147l-1 128l433 -221v-109z" />
<glyph unicode="?" horiz-adv-x="497" d="M169 218q1 49 11 75.5t44 67.5q41 48 54.5 72t13.5 50q0 34 -30.5 54.5t-82.5 20.5q-68 0 -141 -33l-5 131q98 27 201 27q106 0 167.5 -44t61.5 -119q0 -59 -46 -122q-10 -13 -64 -78q-27 -33 -35.5 -51.5t-9.5 -50.5h-139zM160 0v148h158v-148h-158z" />
<glyph unicode="@" horiz-adv-x="749" d="M144 -3q-50 47 -78.5 114.5t-28.5 138.5q0 150 103.5 253t252.5 103q137 0 228.5 -85t91.5 -212q0 -91 -51 -158t-120 -67q-57 0 -85 49q-18 -22 -48.5 -36t-62.5 -14q-57 0 -95.5 41.5t-38.5 103.5q0 73 49.5 128t114.5 55q46 0 86 -35l5 26h92l-35 -175q-6 -28 -6 -39 q0 -24 24 -24q33 0 59 44.5t26 100.5q0 92 -64.5 150.5t-164.5 58.5q-113 0 -189.5 -77.5t-76.5 -191.5q0 -110 73 -185q68 -69 194 -69q89 0 182 31l22 -88q-93 -31 -210 -31q-153 0 -249 90zM315 232q0 -26 14.5 -42t38.5 -16q28 0 49.5 26t21.5 60q0 26 -14.5 42 t-36.5 16q-29 0 -51 -26t-22 -60z" />
<glyph unicode="A" horiz-adv-x="727" d="M2 0l254 667h213l256 -667h-191l-51 141h-248l-54 -141h-179zM275 264h166l-69 225q-7 23 -11 47q-3 -23 -11 -46z" />
<glyph unicode="B" horiz-adv-x="644" d="M64 0v667h283q122 0 181 -42.5t59 -130.5q0 -117 -122 -156q51 -9 79 -29q63 -46 63 -130q0 -105 -104 -153q-58 -26 -206 -26h-233zM244 397h64q104 0 104 74q0 35 -25.5 54t-71.5 19h-71v-147zM244 123h72q48 0 73 13q38 21 38 64q0 47 -40 67q-23 10 -66 10h-77v-154z " />
<glyph unicode="C" horiz-adv-x="654" d="M129 92q-92 97 -92 246q0 157 101.5 251t271.5 94q109 0 203 -37l-14 -140q-89 43 -166 43q-94 0 -152.5 -58t-58.5 -152q0 -98 61.5 -157t162.5 -59q73 0 162 37l10 -146q-80 -30 -194 -30q-192 0 -295 108z" />
<glyph unicode="D" horiz-adv-x="738" d="M64 0v667h228q200 0 287 -62q58 -40 90 -111.5t32 -160.5q0 -93 -33 -164.5t-94 -110.5q-49 -31 -114.5 -44.5t-170.5 -13.5h-225zM244 131h31q64 0 101 8.5t68 30.5q72 50 72 161q0 71 -29 120.5t-83 68.5q-42 15 -160 16v-405z" />
<glyph unicode="E" horiz-adv-x="592" d="M64 0v667h469v-128h-289v-134h272v-128h-272v-149h300v-128h-480z" />
<glyph unicode="F" horiz-adv-x="546" d="M64 0v667h443v-128h-263v-140h252v-128h-252v-271h-180z" />
<glyph unicode="G" horiz-adv-x="726" d="M37 330q0 170 106.5 261.5t305.5 91.5q102 0 210 -30l-15 -143q-87 42 -175 42q-111 0 -179 -60t-68 -158q0 -92 58 -151.5t148 -59.5q33 0 76 13v128h-104v123h276v-363q-99 -40 -222 -40q-204 0 -310.5 88.5t-106.5 257.5z" />
<glyph unicode="H" horiz-adv-x="695" d="M64 0v667h180v-256h207v256h180v-667h-180v278h-207v-278h-180z" />
<glyph unicode="I" horiz-adv-x="321" d="M71 0v667h180v-667h-180z" />
<glyph unicode="J" horiz-adv-x="424" d="M13 4l3 144q33 -12 60 -12q68 0 93 49q14 28 14 100v382h180v-408q0 -79 -11 -124t-37 -77q-63 -74 -184 -74q-54 0 -118 20z" />
<glyph unicode="K" horiz-adv-x="682" d="M64 0v667h180v-279q8 16 23 36l177 243h212l-243 -312l265 -355h-224l-197 284q-2 4 -6 10l-7 14v-308h-180z" />
<glyph unicode="L" horiz-adv-x="533" d="M64 0v667h180v-534h272v-133h-452z" />
<glyph unicode="M" horiz-adv-x="959" d="M64 0v667h274l74 -222q55 -167 69 -245q5 53 58 215l83 252h273v-667h-175v349q0 55 4 111l3 75q-19 -61 -27 -87q-15 -52 -44 -144l-100 -304h-162l-117 355q-25 75 -43 146l-10 34l1 -19l3 -50q4 -72 4 -117v-349h-168z" />
<glyph unicode="N" horiz-adv-x="743" d="M64 0v667h225l165 -315q52 -99 70 -172q-8 83 -9 206l-3 281h167v-667h-222l-139 261l-51 98q-27 51 -48 114q7 -59 8 -134l3 -339h-166z" />
<glyph unicode="O" horiz-adv-x="742" d="M125 76q-88 90 -88 260q0 163 87 253q44 44 109 69t138 25q81 0 148.5 -28t111.5 -79q75 -89 75 -247q0 -146 -71 -233q-43 -52 -114 -82t-150 -30q-71 0 -137.5 25t-108.5 67zM373 115q68 0 108 58t40 156q0 103 -40 163t-109 60q-68 0 -109 -59.5t-41 -159.5t41 -159 t110 -59z" />
<glyph unicode="P" horiz-adv-x="595" d="M64 0v667h242q139 0 197 -45q75 -58 75 -169q0 -63 -28 -112.5t-78 -75.5q-56 -30 -187 -30h-40v-235h-181zM244 363h27q60 0 87 14q40 22 40 74q0 59 -47 77q-29 11 -81 11h-26v-176z" />
<glyph unicode="Q" horiz-adv-x="743" d="M123 76q-41 42 -63.5 110.5t-22.5 149.5q0 161 90 254t244 93q73 0 138 -24t107 -67q91 -93 91 -263q0 -138 -67 -228q-33 -46 -99 -79l155 -151h-199l-105 112q-10 -1 -23 -1q-69 0 -137.5 26t-108.5 68zM260 176q19 -28 49.5 -45t63.5 -17q68 0 108.5 57.5t40.5 153.5 q0 108 -41 167q-42 60 -109 60q-63 0 -106 -54q-44 -56 -44 -165q0 -99 38 -157z" />
<glyph unicode="R" horiz-adv-x="642" d="M64 0v667h275q120 0 174 -31q80 -47 80 -147q0 -134 -134 -162q37 -10 54.5 -34.5t47.5 -108.5l67 -184h-187l-54 168q-16 52 -40 70.5t-74 18.5h-29v-257h-180zM239 385h69q105 0 105 75q0 79 -114 79h-60v-154z" />
<glyph unicode="S" horiz-adv-x="577" d="M47 18l15 145q97 -41 184 -41q50 0 78 18.5t28 51.5q0 27 -20 43t-73 32q-67 20 -100 35t-59 36q-28 24 -44 61.5t-16 77.5q0 50 24 94t65 70q66 42 182 42q97 0 189 -28l-10 -135q-82 32 -154 32q-52 0 -81.5 -17t-29.5 -47q0 -35 36 -52q19 -9 98 -32q100 -30 136 -73 q42 -48 42 -129q0 -104 -74 -161t-208 -57q-109 0 -208 34z" />
<glyph unicode="T" horiz-adv-x="535" d="M178 0v530h-164v133h507v-133h-163v-530h-180z" />
<glyph unicode="U" horiz-adv-x="697" d="M126 67q-65 69 -65 206v394h180v-394q0 -77 18 -109q30 -49 91 -49q63 0 92 53q14 27 14 104v395h180v-414q0 -128 -76 -197q-81 -72 -207 -72q-147 0 -227 83z" />
<glyph unicode="V" horiz-adv-x="678" d="M229 0l-224 667h189l123 -409q13 -42 27 -123q13 72 22 105l32 121l93 306h181l-223 -667h-220z" />
<glyph unicode="W" horiz-adv-x="950" d="M157 0l-148 667h182l47 -260q30 -168 38 -274h3q8 110 30 232l56 302h228l53 -272q26 -134 42 -262l4 36l5 56q2 23 13 87l62 355h170l-143 -667h-228l-43 212q-35 175 -52 321h-4q-9 -110 -30 -221l-58 -312h-227z" />
<glyph unicode="X" horiz-adv-x="688" d="M9 0l215 350l-195 317h207l86 -163q16 -31 27 -63q23 57 38 85l78 141h192l-192 -317l215 -350h-215l-91 167q-20 37 -35 81q-12 -33 -31 -68l-100 -180h-199z" />
<glyph unicode="Y" horiz-adv-x="680" d="M249 0v246l-244 421h209l106 -205q17 -32 25 -68q9 39 30 80l98 193h201l-245 -421v-246h-180z" />
<glyph unicode="Z" horiz-adv-x="593" d="M35 0v145l248 312q37 48 76 85q-21 -3 -61 -3h-250v128h509v-137l-259 -326q-38 -49 -73 -82q33 6 66 6h267v-128h-523z" />
<glyph unicode="[" horiz-adv-x="370" d="M64 -202v915h251v-107h-109v-701h109v-107h-251z" />
<glyph unicode="\" horiz-adv-x="472" d="M374 -202l-333 915h131l334 -915h-132z" />
<glyph unicode="]" horiz-adv-x="370" d="M55 -95h109v701h-109v107h251v-915h-251v107z" />
<glyph unicode="^" horiz-adv-x="500" d="M5 334l160 337h171l160 -337h-136l-109 233l-110 -233h-136z" />
<glyph unicode="_" horiz-adv-x="500" d="M0 -46h500v-117h-500v117z" />
<glyph unicode="`" horiz-adv-x="500" d="M226 567l-148 140h157l101 -140h-110z" />
<glyph unicode="a" horiz-adv-x="576" d="M33 150q0 161 264 161q20 0 69 -2q-4 47 -30 68.5t-81 21.5q-77 0 -158 -41l-3 113q97 37 190 37q130 0 195 -68q26 -27 35.5 -65t10.5 -113q1 -180 7 -262h-152l-2 81q-33 -50 -71 -71.5t-95 -21.5q-78 0 -128.5 45.5t-50.5 116.5zM197 154q0 -25 19 -41t48 -16 q56 0 87 53q13 24 16 69q-29 3 -49 3q-121 0 -121 -68z" />
<glyph unicode="b" horiz-adv-x="641" d="M53 0v713h173v-288q62 83 168 83q97 0 155.5 -69.5t58.5 -184.5q0 -119 -61 -192.5t-161 -73.5q-122 0 -175 102v-25q0 -6 -1 -42q0 -11 1 -23h-158zM227 251q0 -62 28.5 -98.5t76.5 -36.5q46 0 73 36t27 97t-26.5 96t-72.5 35q-47 0 -76.5 -36t-29.5 -93z" />
<glyph unicode="c" horiz-adv-x="489" d="M94 76q-61 72 -61 173q0 118 75.5 186.5t204.5 68.5q74 0 142 -29l-11 -125q-47 27 -95 27q-61 0 -100.5 -36.5t-39.5 -92.5q0 -58 41.5 -95t105.5 -37q45 0 100 24l4 -125q-68 -24 -146 -24q-147 0 -220 85z" />
<glyph unicode="d" horiz-adv-x="645" d="M253 -12q-101 0 -161 72t-60 193q0 114 60.5 184.5t158.5 70.5q105 0 164 -84l-1 11v10q-1 5 -1 18v250h173v-510q0 -50 5 -203h-160q-2 68 -2 88q-57 -100 -176 -100zM208 252q0 -60 28.5 -98.5t72.5 -38.5q47 0 76 37t29 96q0 61 -29.5 97t-79.5 36q-43 0 -70 -35.5 t-27 -93.5z" />
<glyph unicode="e" horiz-adv-x="581" d="M33 253q0 119 71 188t193 69q250 0 250 -306v-8h-349q15 -101 136 -101q76 0 167 42l3 -119q-85 -32 -178 -32q-139 0 -216 70t-77 197zM197 295h196q-7 55 -30 80.5t-67 25.5t-70 -27.5t-29 -78.5z" />
<glyph unicode="f" horiz-adv-x="425" d="M116 0v372h-99v119h99v43q0 189 203 189q46 0 91 -11l-9 -116q-26 9 -45 9q-38 0 -55 -27q-12 -19 -12 -63v-24h121v-119h-121v-372h-173z" />
<glyph unicode="g" horiz-adv-x="640" d="M104 -46q94 -42 174 -42q94 0 127 56q18 30 18 122q-36 -47 -75 -67.5t-94 -20.5q-50 0 -93 20t-70 55q-58 74 -58 182q0 109 61.5 179t156.5 70q120 0 177 -101v36q0 1 2 53h156v-424q0 -77 -11 -119t-40 -76q-74 -88 -232 -88q-102 0 -208 34zM209 259q0 -56 29 -92.5 t73 -36.5q45 0 75 35.5t30 88.5q0 55 -30 91t-77 36q-44 0 -72 -34.5t-28 -87.5z" />
<glyph unicode="h" horiz-adv-x="635" d="M53 0v713h173v-292q62 87 167 87q94 0 148 -66q41 -52 41 -156v-286h-173v239q0 56 -9 83q-18 47 -68 47q-26 0 -49 -13t-36 -35q-21 -34 -21 -109v-212h-173z" />
<glyph unicode="i" horiz-adv-x="279" d="M53 581v127h173v-127h-173zM53 0v496h173v-496h-173z" />
<glyph unicode="j" horiz-adv-x="280" d="M53 581v127h173v-127h-173zM53 13v483h173v-489q0 -64 -7.5 -95.5t-28.5 -57.5q-49 -59 -147 -59q-36 0 -87 8l5 110h23q39 0 54 21.5t15 78.5z" />
<glyph unicode="k" horiz-adv-x="580" d="M53 0v713h173v-366q0 -20 -4 -70q23 39 35 56l110 163h188l-170 -226l185 -270h-203l-115 197l-16 29q-6 10 -14 29q4 -25 4 -62v-193h-173z" />
<glyph unicode="l" horiz-adv-x="279" d="M53 0v713h173v-713h-173z" />
<glyph unicode="m" horiz-adv-x="955" d="M58 0v369q0 31 -5 127h160q1 -43 1 -104q57 116 186 116q118 0 151 -99q60 99 181 99q104 0 146 -73q23 -40 23 -135v-300h-173v250q0 61 -17.5 89t-54.5 28q-49 0 -73 -46q-17 -33 -17 -94v-227h-173v265q0 44 -9 65q-17 37 -60 37q-23 0 -44 -14t-32 -37 q-17 -35 -17 -103v-213h-173z" />
<glyph unicode="n" horiz-adv-x="639" d="M58 0v336q0 85 -5 160h159l1 -50l1 -44q60 106 184 106q100 0 150 -63q23 -29 30.5 -65.5t7.5 -117.5v-262h-173v253q0 49 -10 71q-21 43 -70 43q-55 0 -84 -52q-18 -32 -18 -84v-231h-173z" />
<glyph unicode="o" horiz-adv-x="639" d="M33 250q0 118 78 189t207 71q131 0 209 -72t78 -193q0 -117 -78 -188t-206 -71q-131 0 -209.5 72t-78.5 192zM209 251q0 -65 30.5 -106t79.5 -41t79.5 39.5t30.5 102.5q0 65 -30.5 105.5t-79.5 40.5q-47 0 -78.5 -40t-31.5 -101z" />
<glyph unicode="p" horiz-adv-x="647" d="M58 -202v534q0 9 -5 164h160l1 -48l1 -46q24 46 57 68q53 38 127 38q98 0 156.5 -70t58.5 -186q0 -109 -57 -186q-57 -78 -164 -78q-110 0 -164 86q2 -20 2 -56v-220h-173zM231 250q0 -59 29.5 -95t77.5 -36q46 0 73 35.5t27 95.5q0 63 -26 98t-73 35q-48 0 -78 -37 t-30 -96z" />
<glyph unicode="q" horiz-adv-x="641" d="M33 251q0 116 60 186.5t158 70.5q77 0 134 -48q27 -24 44 -62q0 50 1 98h157v-698h-173v232q0 9 2 45q-16 -38 -60.5 -62.5t-99.5 -24.5q-101 0 -162 71.5t-61 191.5zM209 250q0 -61 28.5 -98t74.5 -37q45 0 73.5 36.5t28.5 94.5q0 60 -29.5 97.5t-77.5 37.5 q-44 0 -71 -36.5t-27 -94.5z" />
<glyph unicode="r" horiz-adv-x="429" d="M58 0v368q0 42 -4 128h156q1 -16 1.5 -30t1 -20t0.5 -11.5v-11.5v-40q21 64 55 91t93 27q26 0 54 -5l-6 -146q-31 9 -56 9q-64 0 -96 -47q-26 -38 -26 -124v-188h-173z" />
<glyph unicode="s" horiz-adv-x="481" d="M40 17l8 124q84 -37 161 -37q69 0 69 39q0 20 -15 28q-13 8 -69 22q-54 14 -80 26t-45 31q-36 36 -36 92q0 76 59 119t162 43q84 0 162 -27l-12 -117q-75 35 -138 35q-32 0 -50.5 -10.5t-18.5 -28.5q0 -23 28 -33q7 -3 84 -19q138 -28 138 -150q0 -77 -59 -120t-163 -43 q-94 0 -185 26z" />
<glyph unicode="t" horiz-adv-x="422" d="M133 52q-24 30 -27 85q-1 11 -1 90v145h-97v119h103v115l167 54v-169h119v-119h-119v-149q0 -68 9 -87q16 -31 60 -31q27 0 52 8l5 -110q-47 -12 -96 -12q-128 0 -175 61z" />
<glyph unicode="u" horiz-adv-x="637" d="M88 61q-35 51 -35 165v270h173v-255q0 -55 14 -78q20 -36 65 -36q27 0 49.5 15.5t33.5 41.5q16 36 16 101v211h173v-350q0 -38 6 -146h-161q-3 43 -4 88q-63 -100 -178 -100q-102 0 -152 73z" />
<glyph unicode="v" horiz-adv-x="586" d="M196 0l-185 496h185l56 -179l29 -95q8 -25 19 -86q16 78 49 184l55 176h171l-186 -496h-193z" />
<glyph unicode="w" horiz-adv-x="902" d="M163 0l-152 496h181l63 -267q9 -36 16 -101q8 60 21 108l69 260h202l59 -230q16 -63 26 -138q15 101 25 143l54 225h165l-151 -496h-198l-73 297q-8 31 -14 76q-1 -4 -2 -10t-1.5 -9.5t-0.5 -4.5q-4 -24 -5 -26q0 -6 -6 -27l-77 -296h-201z" />
<glyph unicode="x" horiz-adv-x="580" d="M7 0l167 254l-153 242h199l76 -150l77 150h185l-155 -242l167 -254h-203l-85 154l-83 -154h-192z" />
<glyph unicode="y" horiz-adv-x="586" d="M57 -69q44 -10 65 -10q34 0 54.5 14.5t36.5 48.5l-202 512h184l108 -328l102 328h170l-205 -521q-40 -104 -86 -141q-55 -43 -138 -43q-48 0 -101 14z" />
<glyph unicode="z" horiz-adv-x="489" d="M28 0v137l153 161l29 29l41 43q-39 -3 -53 -3l-42 1h-123v123h417v-130l-188 -201l-15 -16l-6 -6l-8.5 -8.5l-9.5 -9.5q75 3 82 3h149v-123h-426z" />
<glyph unicode="{" horiz-adv-x="370" d="M64 -59v179q0 39 -12.5 58t-42.5 24v107q29 7 42 25q13 20 13 57v179q0 84 43 116q21 17 44.5 22t76.5 5h32l45 1v-107h-15q-58 0 -71 -12t-13 -66v-147q0 -61 -21 -92q-10 -14 -39 -34q34 -22 47 -49.5t13 -77.5v-147q0 -53 13 -65t71 -12h15v-107h-45q-79 0 -97 2.5 t-42 15.5q-57 30 -57 125z" />
<glyph unicode="|" horiz-adv-x="500" d="M185 -167v834h130v-834h-130z" />
<glyph unicode="}" horiz-adv-x="370" d="M65 -95h15q58 0 71 12t13 65v147q0 61 21 92q9 13 39 35q-34 22 -47 49t-13 77v147q0 54 -13 66t-71 12h-15v107l45 -1h32q55 0 80.5 -6.5t47.5 -26.5q36 -32 36 -110v-179q0 -39 12.5 -58t42.5 -24v-107q-29 -7 -42 -25q-13 -20 -13 -57v-179q0 -95 -57 -125 q-24 -13 -42 -15.5t-97 -2.5h-45v107z" />
<glyph unicode="~" horiz-adv-x="667" d="M161 560l-71 47l8 17q19 44 31 62.5t32 33.5q34 26 81 26q31 0 103 -26q65 -24 87 -24q24 0 39 11t32 41l74 -43q-23 -47 -38 -69t-36 -37q-38 -28 -85 -28q-25 0 -103 28q-61 22 -81 22q-27 0 -44 -17q-11 -9 -29 -44z" />
<glyph unicode="&#xa1;" horiz-adv-x="282" d="M63 348v148h158v-148h-158zM53 -171l24 448h129l23 -448h-176z" />
<glyph unicode="&#xa2;" d="M318 -17v103q-104 7 -170.5 79t-66.5 178q0 107 63.5 175t173.5 78v101h73v-100q55 -3 111 -28l-10 -125q-48 26 -96 26q-62 0 -101 -36t-39 -93q0 -58 41.5 -94.5t107.5 -36.5q44 0 99 24l4 -126q-42 -14 -117 -23v-102h-73z" />
<glyph unicode="&#xa3;" d="M51 0v124h90v181h-79v88h79q2 87 14 130t43 77q72 78 206 78q70 0 131 -19l-7 -125q-42 14 -80 14q-90 0 -118 -66q-12 -25 -13 -89h143v-88h-139v-181h209v-124h-479z" />
<glyph unicode="&#xa4;" d="M81 57l-66 67l90 90q-37 56 -37 119q0 61 37 119l-91 91l67 68l91 -92q58 37 122 37q63 0 119 -36l90 90l67 -67l-90 -89q39 -63 39 -121q0 -62 -37 -119l90 -90l-66 -67l-90 90q-58 -38 -123 -38q-59 0 -122 37zM293 218q47 0 81 34t34 81q0 46 -33.5 80t-79.5 34 q-49 0 -82.5 -33.5t-33.5 -81.5q0 -46 33.5 -80t80.5 -34z" />
<glyph unicode="&#xa5;" d="M25 178v88h175l-58 112h-117v88h74l-97 201h207l75 -210q10 -31 15 -68q6 32 21 79l67 199h197l-97 -201h76v-88h-119l-57 -112h176v-88h-183v-178h-173v178h-182z" />
<glyph unicode="&#xa6;" horiz-adv-x="500" d="M185 320v347h130v-347h-130zM185 153h130v-320h-130v320z" />
<glyph unicode="&#xa7;" d="M70 -43q104 -43 187 -43q49 0 76.5 16t27.5 45q0 34 -38 55q-19 10 -85 36q-107 42 -153 88q-45 43 -45 108q0 42 20.5 74.5t71.5 72.5q-45 28 -64.5 59t-19.5 77q0 85 67.5 132.5t188.5 47.5q69 0 186 -27l-10 -127q-89 28 -154 28q-107 0 -107 -54q0 -24 24 -41 q15 -11 30.5 -18t84.5 -31q98 -35 143.5 -83.5t45.5 -115.5q0 -47 -19.5 -80.5t-66.5 -68.5q80 -44 80 -126q0 -50 -27.5 -94t-74.5 -67q-67 -34 -168 -34q-96 0 -211 33zM225 224q13 -9 82 -42l57 -27q34 41 34 79t-32 64q-23 17 -74 39l-68 29q-37 -36 -37 -74 q0 -41 38 -68z" />
<glyph unicode="&#xa8;" horiz-adv-x="500" d="M290 570v133h140v-133h-140zM70 570v133h140v-133h-140z" />
<glyph unicode="&#xa9;" horiz-adv-x="769" d="M37 333q0 147 102.5 248.5t250.5 101.5q140 0 241 -103.5t101 -246.5q0 -144 -102 -246.5t-245 -102.5t-245.5 102.5t-102.5 246.5zM113 333q0 -115 80 -197.5t192 -82.5t191.5 82.5t79.5 197.5t-79 198t-188 83q-116 0 -196 -81.5t-80 -199.5zM178 341q0 91 62.5 145 t166.5 54q66 0 128 -23l-10 -90q-55 27 -103 27q-55 0 -89 -31t-34 -81q0 -52 35.5 -83.5t94.5 -31.5q43 0 102 22l7 -93q-50 -18 -122 -18q-109 0 -173.5 55t-64.5 148z" />
<glyph unicode="&#xaa;" horiz-adv-x="401" d="M155 365q-53 0 -86.5 28.5t-33.5 72.5q0 100 175 100h17l20 -1q-4 43 -64 43q-50 0 -107 -27l-2 79q65 23 127 23q104 0 141 -57q13 -19 15 -40t4 -116q0 -33 5 -98h-108l-2 37q-23 -25 -45 -34.5t-56 -9.5zM189 440q26 0 41.5 16.5t17.5 45.5h-4q-5 1 -21 1 q-72 0 -72 -35q0 -12 11 -20t27 -8zM45 267v63h321v-63h-321z" />
<glyph unicode="&#xab;" horiz-adv-x="548" d="M261 254l111 194h142l-102 -194l102 -195h-142zM144 59l-111 195l111 194h142l-102 -194l102 -195h-142z" />
<glyph unicode="&#xac;" horiz-adv-x="500" d="M33 150v117h433v-267h-130v150h-303z" />
<glyph unicode="&#xad;" horiz-adv-x="283" d="M0 201v126h283v-126h-283z" />
<glyph unicode="&#xae;" horiz-adv-x="769" d="M37 333q0 147 102.5 248.5t250.5 101.5q140 0 241 -103.5t101 -246.5q0 -144 -102 -246.5t-245 -102.5t-245.5 102.5t-102.5 246.5zM113 333q0 -115 80 -197.5t192 -82.5t191.5 82.5t79.5 197.5t-79 198t-188 83q-116 0 -196 -81.5t-80 -199.5zM218 147v384h171 q71 0 106 -18q51 -28 51 -87q0 -63 -66 -92q16 -10 23 -22t24 -55l43 -110h-124l-34 98q-9 27 -22 36.5t-41 9.5h-12v-144h-119zM334 373h36q57 0 57 37q0 39 -62 39h-31v-76z" />
<glyph unicode="&#xaf;" horiz-adv-x="500" d="M75 587v80h351v-80h-351z" />
<glyph unicode="&#xb0;" horiz-adv-x="379" d="M190 422q-65 0 -110 44.5t-45 109.5q0 62 45.5 106t109.5 44t109 -44.5t45 -107.5q0 -62 -45 -107t-109 -45zM190 498q31 0 53.5 22.5t22.5 53.5t-22.5 53.5t-54.5 22.5q-31 0 -53.5 -22t-22.5 -53q0 -32 22.5 -54.5t54.5 -22.5z" />
<glyph unicode="&#xb1;" d="M233 200v173h-190v120h190v174h120v-174h190v-120h-190v-173h-120zM43 20v120h500v-120h-500z" />
<glyph unicode="&#xb2;" horiz-adv-x="271" d="M30 400v54l24 18q99 75 99 111q0 14 -10.5 22t-27.5 8q-35 0 -75 -21l-4 64q60 16 96 16q46 0 74 -22t28 -58q0 -42 -54 -97q-31 -31 -43 -39h13h90v-56h-210z" />
<glyph unicode="&#xb3;" horiz-adv-x="270" d="M31 406l4 61q41 -15 72 -15q53 0 53 29q0 15 -13 21t-45 6h-24v54q37 0 48 1q32 3 32 24q0 27 -49 27q-27 0 -65 -13l-5 58q49 13 83 13q55 0 84.5 -19.5t29.5 -55.5q0 -40 -43 -59q48 -18 48 -62q0 -36 -35 -58.5t-91 -22.5q-35 0 -84 11z" />
<glyph unicode="&#xb4;" horiz-adv-x="500" d="M163 567l102 140h156l-147 -140h-111z" />
<glyph unicode="&#xb5;" horiz-adv-x="500" d="M156 51v-224h-129v653h129v-254q0 -45 6.5 -67.5t25.5 -39.5q28 -26 66 -26q41 0 68 32q25 30 25 105v250h129v-480h-129v56q-33 -66 -96 -66q-60 0 -95 61z" />
<glyph unicode="&#xb6;" d="M194 -202v460h-11q-71 0 -115 55.5t-44 145.5q0 123 74 175q47 33 137 33h322v-123h-60v-746h-110v746h-83v-746h-110z" />
<glyph unicode="&#xb7;" horiz-adv-x="272" d="M55 187v153h161v-153h-161z" />
<glyph unicode="&#xb8;" horiz-adv-x="500" d="M156 -92l57 92h65l-41 -68q25 3 33 3q36 0 57 -18.5t21 -50.5q0 -40 -34 -63.5t-90 -23.5q-62 0 -117 26l23 48q45 -23 78 -23q46 0 46 31q0 14 -11.5 23.5t-30.5 9.5q-14 0 -32 -6z" />
<glyph unicode="&#xb9;" horiz-adv-x="270" d="M115 400v159q0 16 1 29l-50 -34l-37 52l99 61h69v-267h-82z" />
<glyph unicode="&#xba;" horiz-adv-x="447" d="M225 363q-86 0 -138 44t-52 117q0 71 51.5 115t136.5 44q86 0 137.5 -44t51.5 -118q0 -71 -51.5 -114.5t-135.5 -43.5zM223 443q29 0 47.5 22t18.5 57q0 36 -18 58.5t-47 22.5t-47.5 -22t-18.5 -56q0 -36 18 -59t47 -23zM45 267v63h357v-63h-357z" />
<glyph unicode="&#xbb;" horiz-adv-x="548" d="M261 59l102 195l-102 194h142l111 -194l-111 -195h-142zM33 59l102 195l-102 194h142l111 -194l-111 -195h-142z" />
<glyph unicode="&#xbc;" horiz-adv-x="951" d="M245 -33l365 732h95l-366 -732h-94zM169 267v238q0 24 1 48l-76 -52l-54 76l147 90h102v-400h-120zM575 75v90l171 235h127v-248h60v-77h-60v-75h-110v75h-188zM659 149h117v167z" />
<glyph unicode="&#xbd;" horiz-adv-x="951" d="M245 -33l365 732h95l-366 -732h-94zM169 267v238q0 24 1 48l-76 -52l-54 76l147 90h102v-400h-120zM598 0v79l35 27q79 62 116 105q33 37 33 64q0 21 -16.5 33.5t-44.5 12.5q-50 0 -108 -30l-5 92q80 23 141 23q68 0 109.5 -32.5t41.5 -86.5q0 -63 -80 -144 q-41 -42 -69 -63q19 1 25 1h133v-81h-311z" />
<glyph unicode="&#xbe;" horiz-adv-x="951" d="M246 -33l364 732h96l-367 -732h-93zM41 275l5 89q57 -22 108 -22q81 0 81 46q0 23 -20 33t-68 10q-19 0 -36 -1v78h36q84 0 84 40q0 20 -20 31t-54 11q-44 0 -98 -19l-7 84q70 19 125 19q81 0 124.5 -29t43.5 -82q0 -33 -18 -56.5t-51 -33.5q76 -20 76 -92 q0 -55 -51.5 -88t-136.5 -33q-58 0 -123 15zM576 75v90l170 235h127v-248h60v-77h-60v-75h-110v75h-187zM660 149h116v167z" />
<glyph unicode="&#xbf;" horiz-adv-x="497" d="M178 348v148h158v-148h-158zM33 -24q0 58 46 122q5 7 64 77q27 33 35.5 51.5t9.5 50.5h139q-1 -51 -10.5 -77t-44.5 -66q-41 -49 -54.5 -72.5t-13.5 -48.5q0 -34 30.5 -54.5t81.5 -20.5q69 0 142 33l5 -131q-98 -27 -201 -27q-106 0 -167.5 44t-61.5 119z" />
<glyph unicode="&#xc0;" horiz-adv-x="727" d="M317 727l-151 133h167l101 -133h-117zM2 0l254 667h213l256 -667h-191l-51 141h-248l-54 -141h-179zM275 264h166l-69 225q-7 23 -11 47q-3 -23 -11 -46z" />
<glyph unicode="&#xc1;" horiz-adv-x="727" d="M296 727l102 133h166l-151 -133h-117zM2 0l254 667h213l256 -667h-191l-51 141h-248l-54 -141h-179zM275 264h166l-69 225q-7 23 -11 47q-3 -23 -11 -46z" />
<glyph unicode="&#xc2;" horiz-adv-x="727" d="M173 727l115 133h157l115 -133h-123l-71 70l-70 -70h-123zM2 0l254 667h213l256 -667h-191l-51 141h-248l-54 -141h-179zM275 264h166l-69 225q-7 23 -11 47q-3 -23 -11 -46z" />
<glyph unicode="&#xc3;" horiz-adv-x="727" d="M188 728q7 63 28 89q35 44 89 44q33 0 87 -24q44 -19 57 -19q17 0 25.5 9.5t12.5 33.5h72q-7 -63 -25 -91q-31 -45 -86 -45q-39 0 -89 23q-46 20 -58 20q-33 0 -41 -40h-72zM2 0l254 667h213l256 -667h-191l-51 141h-248l-54 -141h-179zM275 264h166l-69 225 q-7 23 -11 47q-3 -23 -11 -46z" />
<glyph unicode="&#xc4;" horiz-adv-x="727" d="M409 727v133h140v-133h-140zM176 727v133h140v-133h-140zM2 0l254 667h213l256 -667h-191l-51 141h-248l-54 -141h-179zM275 264h166l-69 225q-7 23 -11 47q-3 -23 -11 -46z" />
<glyph unicode="&#xc5;" horiz-adv-x="727" d="M367 703q-44 0 -75 31t-31 75q0 43 31.5 73.5t75.5 30.5q43 0 73.5 -31t30.5 -74q0 -44 -31 -74.5t-74 -30.5zM367 765q17 0 29.5 13t12.5 30t-12.5 30t-29.5 13q-18 0 -30.5 -12.5t-12.5 -30.5q0 -17 12.5 -30t30.5 -13zM2 0l254 667h213l256 -667h-191l-51 141h-248 l-54 -141h-179zM275 264h166l-69 225q-7 23 -11 47q-3 -23 -11 -46z" />
<glyph unicode="&#xc6;" horiz-adv-x="951" d="M2 0l354 667h535v-128h-253l12 -136h227v-128h-216l12 -147h230v-128h-397l-13 141h-229l-70 -141h-192zM325 264h157l-17 212q0 6 -4 84q-9 -30 -15 -43q-14 -35 -18 -43z" />
<glyph unicode="&#xc7;" horiz-adv-x="654" d="M177 50q-67 47 -103.5 122t-36.5 166q0 157 101.5 251t271.5 94q109 0 203 -37l-14 -140q-87 43 -166 43q-94 0 -152.5 -58t-58.5 -151q0 -98 61.5 -157t162.5 -59q73 0 162 36l10 -146q-69 -28 -189 -30l-32 -55q26 3 34 3q37 0 58 -19t21 -53q0 -40 -34.5 -64.5 t-92.5 -24.5q-61 0 -119 26l24 50q45 -22 79 -22q47 0 47 32q0 14 -12 23.5t-30 9.5q-12 0 -33 -7l-25 22l50 82q-119 17 -187 63z" />
<glyph unicode="&#xc8;" horiz-adv-x="592" d="M262 727l-151 133h167l101 -133h-117zM64 0v667h469v-128h-289v-134h272v-128h-272v-149h300v-128h-480z" />
<glyph unicode="&#xc9;" horiz-adv-x="592" d="M231 727l102 133h166l-151 -133h-117zM64 0v667h469v-128h-289v-134h272v-128h-272v-149h300v-128h-480z" />
<glyph unicode="&#xca;" horiz-adv-x="592" d="M108 727l115 133h157l115 -133h-123l-71 70l-70 -70h-123zM64 0v667h469v-128h-289v-134h272v-128h-272v-149h300v-128h-480z" />
<glyph unicode="&#xcb;" horiz-adv-x="592" d="M342 727v133h140v-133h-140zM109 727v133h140v-133h-140zM64 0v667h469v-128h-289v-134h272v-128h-272v-149h300v-128h-480z" />
<glyph unicode="&#xcc;" horiz-adv-x="321" d="M110 727l-138 133h163l92 -133h-117zM70 0v667h180v-667h-180z" />
<glyph unicode="&#xcd;" horiz-adv-x="321" d="M98 727l91 133h164l-138 -133h-117zM71 0v667h180v-667h-180z" />
<glyph unicode="&#xce;" horiz-adv-x="321" d="M-16 727l108 133h144l108 -133h-120l-60 70l-60 -70h-120zM71 0v667h180v-667h-180z" />
<glyph unicode="&#xcf;" horiz-adv-x="321" d="M189 727v133h133v-133h-133zM-7 727v133h133v-133h-133zM71 0v667h180v-667h-180z" />
<glyph unicode="&#xd0;" horiz-adv-x="738" d="M64 0v287h-61v113h61v267h227q107 0 174 -14.5t114 -47.5q58 -40 90 -111.5t32 -160.5q0 -93 -33 -164.5t-94 -110.5q-49 -31 -114.5 -44.5t-170.5 -13.5h-225zM243 131h31q64 0 101 8.5t69 30.5q71 50 71 161q0 71 -29 120.5t-83 68.5q-41 15 -160 16v-134h141v-113 h-141v-158z" />
<glyph unicode="&#xd1;" horiz-adv-x="743" d="M196 728q7 63 28 89q35 44 89 44q33 0 87 -24q44 -19 57 -19q17 0 25.5 9.5t12.5 33.5h72q-7 -63 -25 -91q-31 -45 -86 -45q-39 0 -89 23q-46 20 -58 20q-33 0 -41 -40h-72zM64 0v667h225l165 -315q52 -99 70 -172q-8 83 -9 206l-3 281h167v-667h-222l-139 261l-51 98 q-27 51 -48 114q7 -59 8 -134l3 -339h-166z" />
<glyph unicode="&#xd2;" horiz-adv-x="742" d="M334 727l-151 133h167l101 -133h-117zM125 76q-88 90 -88 260q0 163 87 253q44 44 109 69t138 25q81 0 148.5 -28t111.5 -79q75 -89 75 -247q0 -146 -71 -233q-43 -52 -114 -82t-150 -30q-71 0 -137.5 25t-108.5 67zM373 115q68 0 108 58t40 156q0 103 -40 163t-109 60 q-68 0 -109 -59.5t-41 -159.5t41 -159t110 -59z" />
<glyph unicode="&#xd3;" horiz-adv-x="742" d="M301 727l102 133h166l-151 -133h-117zM125 76q-88 90 -88 260q0 163 87 253q44 44 109 69t138 25q81 0 148.5 -28t111.5 -79q75 -89 75 -247q0 -146 -71 -233q-43 -52 -114 -82t-150 -30q-71 0 -137.5 25t-108.5 67zM373 115q68 0 108 58t40 156q0 103 -40 163t-109 60 q-68 0 -109 -59.5t-41 -159.5t41 -159t110 -59z" />
<glyph unicode="&#xd4;" horiz-adv-x="742" d="M181 727l115 133h157l115 -133h-123l-71 70l-70 -70h-123zM125 76q-88 90 -88 260q0 163 87 253q44 44 109 69t138 25q81 0 148.5 -28t111.5 -79q75 -89 75 -247q0 -146 -71 -233q-43 -52 -114 -82t-150 -30q-71 0 -137.5 25t-108.5 67zM373 115q68 0 108 58t40 156 q0 103 -40 163t-109 60q-68 0 -109 -59.5t-41 -159.5t41 -159t110 -59z" />
<glyph unicode="&#xd5;" horiz-adv-x="742" d="M199 728q7 63 28 89q35 44 89 44q33 0 87 -24q44 -19 57 -19q17 0 25.5 9.5t12.5 33.5h72q-7 -63 -25 -91q-31 -45 -86 -45q-39 0 -89 23q-46 20 -58 20q-33 0 -41 -40h-72zM125 76q-88 90 -88 260q0 163 87 253q44 44 109 69t138 25q81 0 148.5 -28t111.5 -79 q75 -89 75 -247q0 -146 -71 -233q-43 -52 -114 -82t-150 -30q-71 0 -137.5 25t-108.5 67zM373 115q68 0 108 58t40 156q0 103 -40 163t-109 60q-68 0 -109 -59.5t-41 -159.5t41 -159t110 -59z" />
<glyph unicode="&#xd6;" horiz-adv-x="742" d="M418 727v133h140v-133h-140zM185 727v133h140v-133h-140zM125 76q-88 90 -88 260q0 163 87 253q44 44 109 69t138 25q81 0 148.5 -28t111.5 -79q75 -89 75 -247q0 -146 -71 -233q-43 -52 -114 -82t-150 -30q-71 0 -137.5 25t-108.5 67zM373 115q68 0 108 58t40 156 q0 103 -40 163t-109 60q-68 0 -109 -59.5t-41 -159.5t41 -159t110 -59z" />
<glyph unicode="&#xd7;" d="M150 115l-85 85l144 143l-144 144l85 85l144 -144l143 144l85 -85l-144 -144l144 -143l-85 -85l-143 144z" />
<glyph unicode="&#xd8;" horiz-adv-x="742" d="M20 42l73 75q-56 93 -56 219q0 161 89.5 254t244.5 93q122 0 212 -63l75 76l64 -71l-72 -74q56 -88 56 -219q0 -150 -71 -236q-43 -52 -113.5 -82t-149.5 -30q-121 0 -213 63l-75 -77zM230 251l239 257q-41 44 -97 44q-68 0 -109 -59.5t-41 -159.5q0 -38 8 -82zM274 158 q44 -43 99 -43q68 0 108 58t40 157q0 40 -9 85z" />
<glyph unicode="&#xd9;" horiz-adv-x="697" d="M304 727l-151 133h167l101 -133h-117zM126 67q-65 69 -65 206v394h180v-394q0 -77 18 -109q30 -49 91 -49q63 0 92 53q14 27 14 104v395h180v-414q0 -128 -76 -197q-81 -72 -207 -72q-147 0 -227 83z" />
<glyph unicode="&#xda;" horiz-adv-x="697" d="M276 727l102 133h166l-151 -133h-117zM126 67q-65 69 -65 206v394h180v-394q0 -77 18 -109q30 -49 91 -49q63 0 92 53q14 27 14 104v395h180v-414q0 -128 -76 -197q-81 -72 -207 -72q-147 0 -227 83z" />
<glyph unicode="&#xdb;" horiz-adv-x="697" d="M158 727l115 133h157l115 -133h-123l-71 70l-70 -70h-123zM126 67q-65 69 -65 206v394h180v-394q0 -77 18 -109q30 -49 91 -49q63 0 92 53q14 27 14 104v395h180v-414q0 -128 -76 -197q-81 -72 -207 -72q-147 0 -227 83z" />
<glyph unicode="&#xdc;" horiz-adv-x="697" d="M398 727v133h140v-133h-140zM165 727v133h140v-133h-140zM126 67q-65 69 -65 206v394h180v-394q0 -77 18 -109q30 -49 91 -49q63 0 92 53q14 27 14 104v395h180v-414q0 -128 -76 -197q-81 -72 -207 -72q-147 0 -227 83z" />
<glyph unicode="&#xdd;" horiz-adv-x="680" d="M273 727l102 133h166l-151 -133h-117zM249 0v246l-244 421h209l106 -205q17 -32 25 -68q9 39 30 80l98 193h201l-245 -421v-246h-180z" />
<glyph unicode="&#xde;" horiz-adv-x="595" d="M64 0v667h181v-93q15 -1 33 -1q117 -1 154 -10q68 -18 107 -72t39 -131q0 -64 -27.5 -113t-78.5 -76q-58 -30 -187 -30h-40v-141h-181zM242 269h29q61 0 87 15q40 21 40 74q0 59 -47 77q-29 11 -81 11h-28v-177z" />
<glyph unicode="&#xdf;" horiz-adv-x="633" d="M53 0v438q0 94 12.5 138.5t48.5 78.5q70 66 206 66q119 0 186 -50.5t67 -141.5q0 -122 -124 -158q73 -9 112 -53.5t39 -119.5q0 -95 -63 -150t-172 -55q-30 0 -94 7l2 121q23 -5 45 -5q49 0 77.5 26t28.5 71q0 43 -29 68t-79 25q-12 0 -22 -1v120q112 3 112 93 q0 40 -23 64.5t-61 24.5q-66 0 -88 -72q-8 -29 -8 -103v-432h-173z" />
<glyph unicode="&#xe0;" horiz-adv-x="576" d="M265 567l-148 140h157l101 -140h-110zM33 150q0 161 264 161q20 0 69 -2q-4 47 -30 68.5t-81 21.5q-77 0 -158 -41l-3 113q97 37 190 37q130 0 195 -68q26 -27 35.5 -65t10.5 -113q1 -180 7 -262h-152l-2 81q-33 -50 -71 -71.5t-95 -21.5q-78 0 -128.5 45.5t-50.5 116.5z M197 154q0 -25 19 -41t48 -16q56 0 87 53q13 24 16 69q-29 3 -49 3q-121 0 -121 -68z" />
<glyph unicode="&#xe1;" horiz-adv-x="576" d="M234 567l102 140h156l-147 -140h-111zM33 150q0 161 264 161q20 0 69 -2q-4 47 -30 68.5t-81 21.5q-77 0 -158 -41l-3 113q97 37 190 37q130 0 195 -68q26 -27 35.5 -65t10.5 -113q1 -180 7 -262h-152l-2 81q-33 -50 -71 -71.5t-95 -21.5q-78 0 -128.5 45.5t-50.5 116.5z M197 154q0 -25 19 -41t48 -16q56 0 87 53q13 24 16 69q-29 3 -49 3q-121 0 -121 -68z" />
<glyph unicode="&#xe2;" horiz-adv-x="576" d="M121 567l111 140h151l111 -140h-119l-67 77l-67 -77h-120zM33 150q0 161 264 161q20 0 69 -2q-4 47 -30 68.5t-81 21.5q-77 0 -158 -41l-3 113q97 37 190 37q130 0 195 -68q26 -27 35.5 -65t10.5 -113q1 -180 7 -262h-152l-2 81q-33 -50 -71 -71.5t-95 -21.5 q-78 0 -128.5 45.5t-50.5 116.5zM197 154q0 -25 19 -41t48 -16q56 0 87 53q13 24 16 69q-29 3 -49 3q-121 0 -121 -68z" />
<glyph unicode="&#xe3;" horiz-adv-x="576" d="M125 571q8 65 26 90q33 44 85 44q29 0 86 -24q44 -19 56 -19q14 0 21.5 9t11.5 34h72q-7 -64 -24 -91q-28 -46 -81 -46q-39 0 -89 23q-45 20 -57 20q-29 0 -35 -40h-72zM33 150q0 161 264 161q20 0 69 -2q-4 47 -30 68.5t-81 21.5q-77 0 -158 -41l-3 113q97 37 190 37 q130 0 195 -68q26 -27 35.5 -65t10.5 -113q1 -180 7 -262h-152l-2 81q-33 -50 -71 -71.5t-95 -21.5q-78 0 -128.5 45.5t-50.5 116.5zM197 154q0 -25 19 -41t48 -16q56 0 87 53q13 24 16 69q-29 3 -49 3q-121 0 -121 -68z" />
<glyph unicode="&#xe4;" horiz-adv-x="576" d="M344 570v133h140v-133h-140zM124 570v133h140v-133h-140zM33 150q0 161 264 161q20 0 69 -2q-4 47 -30 68.5t-81 21.5q-77 0 -158 -41l-3 113q97 37 190 37q130 0 195 -68q26 -27 35.5 -65t10.5 -113q1 -180 7 -262h-152l-2 81q-33 -50 -71 -71.5t-95 -21.5 q-78 0 -128.5 45.5t-50.5 116.5zM197 154q0 -25 19 -41t48 -16q56 0 87 53q13 24 16 69q-29 3 -49 3q-121 0 -121 -68z" />
<glyph unicode="&#xe5;" horiz-adv-x="576" d="M308 549q-44 0 -75 31t-31 75q0 43 31.5 74t75.5 31q43 0 73.5 -31t30.5 -74q0 -44 -31 -75t-74 -31zM308 611q17 0 29.5 13t12.5 31q0 17 -12.5 30t-29.5 13q-18 0 -30.5 -12.5t-12.5 -30.5t12.5 -31t30.5 -13zM33 150q0 161 264 161q20 0 69 -2q-4 47 -30 68.5 t-81 21.5q-77 0 -158 -41l-3 113q97 37 190 37q130 0 195 -68q26 -27 35.5 -65t10.5 -113q1 -180 7 -262h-152l-2 81q-33 -50 -71 -71.5t-95 -21.5q-78 0 -128.5 45.5t-50.5 116.5zM197 154q0 -25 19 -41t48 -16q56 0 87 53q13 24 16 69q-29 3 -49 3q-121 0 -121 -68z" />
<glyph unicode="&#xe6;" horiz-adv-x="904" d="M33 149q0 163 268 163q7 0 65 -2q-6 89 -108 89q-79 0 -161 -39l-2 112q104 36 190 36q124 0 162 -71q25 32 56 47q53 24 126 24q150 0 207 -113q27 -53 32 -124q2 -20 2 -69v-5h-345q10 -52 44.5 -75.5t99.5 -23.5q78 0 148 38l2 -119q-88 -29 -175 -29q-80 0 -127.5 20 t-74.5 65q-59 -85 -189 -85q-103 0 -161.5 43t-58.5 118zM525 296h192q-1 52 -25.5 80.5t-68.5 28.5q-43 0 -69.5 -29.5t-28.5 -79.5zM196 151q0 -30 20.5 -48t55.5 -18q47 0 72.5 32.5t25.5 91.5q0 7 -1 12q-3 1 -7 1h-3q-10 2 -34 2q-129 0 -129 -73z" />
<glyph unicode="&#xe7;" horiz-adv-x="489" d="M167 21q-62 30 -98 91t-36 137q0 118 75.5 186.5t204.5 68.5q74 0 142 -29l-11 -125q-47 27 -95 27q-61 0 -100.5 -36.5t-39.5 -92.5q0 -57 41.5 -94t105.5 -37q43 0 100 23l4 -125q-60 -21 -135 -24l-36 -59q25 3 34 3q36 0 57 -18.5t21 -50.5q0 -40 -34 -63.5 t-90 -23.5q-63 0 -117 26l22 48q45 -23 79 -23q46 0 46 31q0 14 -11.5 23.5t-30.5 9.5q-14 0 -32 -6l-25 20l54 87q-59 8 -95 26z" />
<glyph unicode="&#xe8;" horiz-adv-x="581" d="M266 567l-148 140h157l101 -140h-110zM33 253q0 119 71 188t193 69q250 0 250 -306v-8h-349q15 -101 136 -101q76 0 167 42l3 -119q-85 -32 -178 -32q-139 0 -216 70t-77 197zM197 295h196q-7 55 -30 80.5t-67 25.5t-70 -27.5t-29 -78.5z" />
<glyph unicode="&#xe9;" horiz-adv-x="581" d="M227 567l102 140h156l-147 -140h-111zM33 253q0 119 71 188t193 69q250 0 250 -306v-8h-349q15 -101 136 -101q76 0 167 42l3 -119q-85 -32 -178 -32q-139 0 -216 70t-77 197zM197 295h196q-7 55 -30 80.5t-67 25.5t-70 -27.5t-29 -78.5z" />
<glyph unicode="&#xea;" horiz-adv-x="581" d="M110 567l111 140h151l111 -140h-119l-67 77l-67 -77h-120zM33 253q0 119 71 188t193 69q250 0 250 -306v-8h-349q15 -101 136 -101q76 0 167 42l3 -119q-85 -32 -178 -32q-139 0 -216 70t-77 197zM197 295h196q-7 55 -30 80.5t-67 25.5t-70 -27.5t-29 -78.5z" />
<glyph unicode="&#xeb;" horiz-adv-x="581" d="M333 570v133h140v-133h-140zM113 570v133h140v-133h-140zM33 253q0 119 71 188t193 69q250 0 250 -306v-8h-349q15 -101 136 -101q76 0 167 42l3 -119q-85 -32 -178 -32q-139 0 -216 70t-77 197zM197 295h196q-7 55 -30 80.5t-67 25.5t-70 -27.5t-29 -78.5z" />
<glyph unicode="&#xec;" horiz-adv-x="279" d="M92 567l-134 140h150l95 -140h-111zM53 0v496h173v-496h-173z" />
<glyph unicode="&#xed;" horiz-adv-x="279" d="M79 567l95 140h150l-134 -140h-111zM53 0v496h173v-496h-173z" />
<glyph unicode="&#xee;" horiz-adv-x="279" d="M-30 567l105 140h137l105 -140h-113l-61 77l-60 -77h-113zM54 0v496h173v-496h-173z" />
<glyph unicode="&#xef;" horiz-adv-x="279" d="M171 570v133h130v-133h-130zM-22 570v133h130v-133h-130zM53 0v496h173v-496h-173z" />
<glyph unicode="&#xf0;" horiz-adv-x="638" d="M33 247q0 106 64 171.5t168 65.5q83 0 146 -53q-11 31 -46 70.5t-77 67.5l-83 -56l-50 52l61 42q-39 17 -93 32l78 96q67 -11 143 -43l87 59l55 -54l-70 -47q89 -60 138.5 -159.5t49.5 -217.5q0 -137 -74 -211t-212 -74q-130 0 -207.5 70.5t-77.5 188.5zM207 236 q0 -64 30 -103.5t80 -39.5q49 0 80.5 40t31.5 102q0 61 -31 99.5t-79 38.5q-49 0 -80.5 -39t-31.5 -98z" />
<glyph unicode="&#xf1;" horiz-adv-x="639" d="M150 571q8 65 26 90q33 44 85 44q29 0 86 -24q44 -19 56 -19q14 0 21.5 9t11.5 34h72q-7 -64 -24 -91q-28 -46 -81 -46q-39 0 -89 23q-45 20 -57 20q-29 0 -35 -40h-72zM58 0v336q0 85 -5 160h159l1 -50l1 -44q60 106 184 106q100 0 150 -63q23 -29 30.5 -65.5 t7.5 -117.5v-262h-173v253q0 49 -10 71q-21 43 -70 43q-55 0 -84 -52q-18 -32 -18 -84v-231h-173z" />
<glyph unicode="&#xf2;" horiz-adv-x="639" d="M292 567l-148 140h157l101 -140h-110zM33 250q0 118 78 189t207 71q131 0 209 -72t78 -193q0 -117 -78 -188t-206 -71q-131 0 -209.5 72t-78.5 192zM209 251q0 -65 30.5 -106t79.5 -41t79.5 39.5t30.5 102.5q0 65 -30.5 105.5t-79.5 40.5q-47 0 -78.5 -40t-31.5 -101z " />
<glyph unicode="&#xf3;" horiz-adv-x="639" d="M249 567l102 140h156l-147 -140h-111zM33 250q0 118 78 189t207 71q131 0 209 -72t78 -193q0 -117 -78 -188t-206 -71q-131 0 -209.5 72t-78.5 192zM209 251q0 -65 30.5 -106t79.5 -41t79.5 39.5t30.5 102.5q0 65 -30.5 105.5t-79.5 40.5q-47 0 -78.5 -40t-31.5 -101z " />
<glyph unicode="&#xf4;" horiz-adv-x="639" d="M136 567l111 140h151l111 -140h-119l-67 77l-67 -77h-120zM33 250q0 118 78 189t207 71q131 0 209 -72t78 -193q0 -117 -78 -188t-206 -71q-131 0 -209.5 72t-78.5 192zM209 251q0 -65 30.5 -106t79.5 -41t79.5 39.5t30.5 102.5q0 65 -30.5 105.5t-79.5 40.5 q-47 0 -78.5 -40t-31.5 -101z" />
<glyph unicode="&#xf5;" horiz-adv-x="639" d="M152 568q8 65 26 90q33 44 85 44q29 0 86 -24q44 -19 56 -19q14 0 21.5 9t11.5 34h72q-7 -64 -24 -91q-28 -46 -81 -46q-39 0 -89 23q-45 20 -57 20q-29 0 -35 -40h-72zM33 250q0 118 78 189t207 71q131 0 209 -72t78 -193q0 -117 -78 -188t-206 -71q-131 0 -209.5 72 t-78.5 192zM209 251q0 -65 30.5 -106t79.5 -41t79.5 39.5t30.5 102.5q0 65 -30.5 105.5t-79.5 40.5q-47 0 -78.5 -40t-31.5 -101z" />
<glyph unicode="&#xf6;" horiz-adv-x="639" d="M362 570v133h140v-133h-140zM142 570v133h140v-133h-140zM33 250q0 118 78 189t207 71q131 0 209 -72t78 -193q0 -117 -78 -188t-206 -71q-131 0 -209.5 72t-78.5 192zM209 251q0 -65 30.5 -106t79.5 -41t79.5 39.5t30.5 102.5q0 65 -30.5 105.5t-79.5 40.5 q-47 0 -78.5 -40t-31.5 -101z" />
<glyph unicode="&#xf7;" d="M228 474v129h129v-129h-129zM43 283v120h500v-120h-500zM228 84v129h129v-129h-129z" />
<glyph unicode="&#xf8;" horiz-adv-x="639" d="M23 48l55 48q-45 69 -45 155q0 117 78.5 188t207.5 71q104 0 182 -51l64 55l51 -67l-55 -47q45 -67 45 -152q0 -119 -77.5 -190.5t-206.5 -71.5q-105 0 -184 50l-64 -55zM215 204l175 159q-29 29 -70 29q-48 0 -79.5 -40t-31.5 -101q0 -24 6 -47zM250 133q29 -29 70 -29 q49 0 79.5 40t30.5 104q0 20 -5 44z" />
<glyph unicode="&#xf9;" horiz-adv-x="637" d="M281 567l-148 140h157l101 -140h-110zM88 61q-35 51 -35 165v270h173v-255q0 -55 14 -78q20 -36 65 -36q27 0 49.5 15.5t33.5 41.5q16 36 16 101v211h173v-350q0 -38 6 -146h-161q-3 43 -4 88q-63 -100 -178 -100q-102 0 -152 73z" />
<glyph unicode="&#xfa;" horiz-adv-x="637" d="M245 567l102 140h156l-147 -140h-111zM88 61q-35 51 -35 165v270h173v-255q0 -55 14 -78q20 -36 65 -36q27 0 49.5 15.5t33.5 41.5q16 36 16 101v211h173v-350q0 -38 6 -146h-161q-3 43 -4 88q-63 -100 -178 -100q-102 0 -152 73z" />
<glyph unicode="&#xfb;" horiz-adv-x="637" d="M131 567l111 140h151l111 -140h-119l-67 77l-67 -77h-120zM88 61q-35 51 -35 165v270h173v-255q0 -55 14 -78q20 -36 65 -36q27 0 49.5 15.5t33.5 41.5q16 36 16 101v211h173v-350q0 -38 6 -146h-161q-3 43 -4 88q-63 -100 -178 -100q-102 0 -152 73z" />
<glyph unicode="&#xfc;" horiz-adv-x="637" d="M358 570v133h140v-133h-140zM138 570v133h140v-133h-140zM88 61q-35 51 -35 165v270h173v-255q0 -55 14 -78q20 -36 65 -36q27 0 49.5 15.5t33.5 41.5q16 36 16 101v211h173v-350q0 -38 6 -146h-161q-3 43 -4 88q-63 -100 -178 -100q-102 0 -152 73z" />
<glyph unicode="&#xfd;" horiz-adv-x="586" d="M233 567l102 140h156l-147 -140h-111zM57 -69q44 -10 65 -10q34 0 54.5 14.5t36.5 48.5l-202 512h184l108 -328l102 328h170l-205 -521q-40 -104 -86 -141q-55 -43 -138 -43q-48 0 -101 14z" />
<glyph unicode="&#xfe;" horiz-adv-x="647" d="M58 -202v915h173v-220q0 -45 -16 -91q25 46 57 68q54 38 127 38q98 0 156.5 -70t58.5 -186q0 -109 -57 -186q-57 -78 -164 -78q-110 0 -164 86q2 -20 2 -56v-220h-173zM231 250q0 -59 29.5 -95t77.5 -36q46 0 73 35.5t27 95.5q0 63 -26 98t-73 35q-48 0 -78 -37t-30 -96z " />
<glyph unicode="&#xff;" horiz-adv-x="586" d="M333 570v133h140v-133h-140zM113 570v133h140v-133h-140zM57 -69q44 -10 65 -10q34 0 54.5 14.5t36.5 48.5l-202 512h184l108 -328l102 328h170l-205 -521q-40 -104 -86 -141q-55 -43 -138 -43q-48 0 -101 14z" />
<glyph unicode="&#x152;" horiz-adv-x="957" d="M158 65q-121 83 -121 267q0 83 27 152t75 109q100 81 273 78l213 -4h270v-128h-233v-136h217v-128h-217v-147h247v-128h-272q-45 0 -78 -1q-77 -3 -116 -3q-185 0 -285 69zM327 149q43 -20 121 -20q21 0 34 2v404q-68 0 -87 -1.5t-46 -9.5q-58 -16 -92.5 -68.5 t-34.5 -124.5q0 -133 105 -182z" />
<glyph unicode="&#x153;" horiz-adv-x="961" d="M33 251q0 119 74 189t199 70q134 0 192 -81q31 44 73 62.5t113 18.5q85 0 137.5 -31.5t80.5 -99.5q26 -63 26 -150v-32h-345q18 -102 141 -102q71 0 151 40l2 -119q-87 -30 -178 -30q-77 0 -123 19.5t-74 62.5q-62 -82 -191 -82q-127 0 -202.5 71.5t-75.5 193.5zM584 296 h192q-2 50 -27 78.5t-67 28.5q-43 0 -70 -29t-28 -78zM209 251q0 -68 29 -108.5t78 -40.5q46 0 74 39.5t28 105.5q0 68 -28 108t-75 40t-76.5 -40t-29.5 -104z" />
<glyph unicode="&#x178;" horiz-adv-x="680" d="M390 727v133h140v-133h-140zM157 727v133h140v-133h-140zM249 0v246l-244 421h209l106 -205q17 -32 25 -68q9 39 30 80l98 193h201l-245 -421v-246h-180z" />
<glyph unicode="&#x2c6;" horiz-adv-x="500" d="M63 567l111 140h151l111 -140h-119l-67 77l-67 -77h-120z" />
<glyph unicode="&#x2dc;" horiz-adv-x="500" d="M71 571q8 65 26 90q33 44 85 44q29 0 86 -24q44 -19 56 -19q14 0 21.5 9t11.5 34h72q-7 -64 -24 -91q-28 -46 -81 -46q-39 0 -89 23q-45 20 -57 20q-29 0 -35 -40h-72z" />
<glyph unicode="&#x2000;" horiz-adv-x="456" />
<glyph unicode="&#x2001;" horiz-adv-x="913" />
<glyph unicode="&#x2002;" horiz-adv-x="456" />
<glyph unicode="&#x2003;" horiz-adv-x="913" />
<glyph unicode="&#x2004;" horiz-adv-x="304" />
<glyph unicode="&#x2005;" horiz-adv-x="228" />
<glyph unicode="&#x2006;" horiz-adv-x="152" />
<glyph unicode="&#x2007;" horiz-adv-x="152" />
<glyph unicode="&#x2008;" horiz-adv-x="114" />
<glyph unicode="&#x2009;" horiz-adv-x="182" />
<glyph unicode="&#x200a;" horiz-adv-x="50" />
<glyph unicode="&#x2010;" horiz-adv-x="283" d="M0 201v126h283v-126h-283z" />
<glyph unicode="&#x2011;" horiz-adv-x="283" d="M0 201v126h283v-126h-283z" />
<glyph unicode="&#x2012;" horiz-adv-x="283" d="M0 201v126h283v-126h-283z" />
<glyph unicode="&#x2013;" d="M35 201v126h516v-126h-516z" />
<glyph unicode="&#x2014;" horiz-adv-x="849" d="M0 201v126h849v-126h-849z" />
<glyph unicode="&#x2018;" horiz-adv-x="307" d="M40 455l97 258h130l-64 -258h-163z" />
<glyph unicode="&#x2019;" horiz-adv-x="307" d="M40 455l64 258h163l-97 -258h-130z" />
<glyph unicode="&#x201a;" horiz-adv-x="307" d="M40 -104l64 258h163l-97 -258h-130z" />
<glyph unicode="&#x201c;" horiz-adv-x="527" d="M260 455l97 258h130l-64 -258h-163zM40 455l97 258h130l-64 -258h-163z" />
<glyph unicode="&#x201d;" horiz-adv-x="527" d="M260 455l64 258h163l-97 -258h-130zM40 455l64 258h163l-97 -258h-130z" />
<glyph unicode="&#x201e;" horiz-adv-x="527" d="M260 -104l64 258h163l-97 -258h-130zM40 -104l64 258h163l-97 -258h-130z" />
<glyph unicode="&#x2022;" horiz-adv-x="667" d="M335 200q-58 0 -98.5 40.5t-40.5 97.5q0 58 40.5 98.5t99.5 40.5q56 0 96.5 -41t40.5 -98t-40.5 -97.5t-97.5 -40.5z" />
<glyph unicode="&#x2026;" horiz-adv-x="816" d="M599 0v153h161v-153h-161zM327 0v153h161v-153h-161zM55 0v153h161v-153h-161z" />
<glyph unicode="&#x202f;" horiz-adv-x="182" />
<glyph unicode="&#x2039;" horiz-adv-x="320" d="M144 59l-111 195l111 194h142l-102 -194l102 -195h-142z" />
<glyph unicode="&#x203a;" horiz-adv-x="320" d="M33 59l102 195l-102 194h142l111 -194l-111 -195h-142z" />
<glyph unicode="&#x205f;" horiz-adv-x="228" />
<glyph unicode="&#x20ac;" horiz-adv-x="650" d="M151 144q-19 39 -30 88h-86l28 88h47l-1 6v11q0 6 1 15h-75l28 88h58q25 115 110.5 179t211.5 64q95 0 171 -38l-53 -164q-41 71 -116 71q-46 0 -82.5 -30t-53.5 -82h240l-28 -88h-226q-1 -5 -1 -21q0 -6 1 -11h215l-28 -88h-175q18 -56 54 -86.5t85 -30.5q77 0 117 72 v-184q-56 -19 -118 -19q-100 0 -178 42.5t-116 117.5z" />
<glyph unicode="&#x2122;" horiz-adv-x="897" d="M354 287v384h173l46 -128q27 -77 36 -111q15 53 30 95l52 144h173v-384h-116v200q0 34 3 67l-31 -93l-62 -174h-105l-71 202l-19 55q2 -25 2 -56v-201h-111zM101 287v296h-98v85h315v-85h-98v-296h-119z" />
<glyph unicode="&#x25fc;" horiz-adv-x="495" d="M0 495h495v-495h-495v495z" />
</font>
</defs>
</svg>
